<?xml version="1.0" standalone="no"?>
<!DOCTYPE svg PUBLIC "-//W3C//DTD SVG 1.1//EN" "http://www.w3.org/Graphics/SVG/1.1/DTD/svg11.dtd" >
<svg xmlns="http://www.w3.org/2000/svg" xmlns:xlink="http://www.w3.org/1999/xlink" version="1.1">
<metadata>
Created by FontForge 20201107 at Tue May 14 11:53:25 2024
 By 
Copyright 2021 Indian Type Foundry. All rights reserved.
</metadata>
<defs>
<font id="ClashDisplay-Medium" horiz-adv-x="1269" >
  <font-face 
    font-family="Clash Display Medium"
    font-weight="500"
    font-stretch="normal"
    units-per-em="2048"
    panose-1="0 0 0 0 0 0 0 0 0 0"
    ascent="1638"
    descent="-410"
    x-height="1018"
    cap-height="1372"
    bbox="-475 -440 3287 1823"
    underline-thickness="102"
    underline-position="-255"
    unicode-range="U+000D-FB04"
  />
<missing-glyph horiz-adv-x="1548" 
d="M774 -10q-192 0 -339 83.5t-224.5 227t-77.5 324.5q0 180 77.5 324t224.5 228.5t339 84.5t339 -84.5t224.5 -228.5t77.5 -324q0 -181 -77.5 -324.5t-224.5 -227t-339 -83.5zM774 162q119 0 199 22t135 76t79.5 142.5t24.5 222.5t-24.5 222.5t-79.5 142t-134.5 75.5
t-199.5 22t-199.5 -22t-134.5 -75.5t-79.5 -142t-24.5 -222.5t24.5 -222.5t79.5 -142.5t135 -76t199 -22zM618 670q-51 0 -81.5 26.5t-30.5 69.5t30.5 69.5t81.5 26.5q49 0 80 -26.5t31 -69.5t-31 -69.5t-80 -26.5zM932 670q-49 0 -80 26.5t-31 69.5t31 69.5t80 26.5
q51 0 80.5 -26.5t29.5 -69.5t-29.5 -69.5t-80.5 -26.5zM774 324q-109 0 -190 48t-150 126l64 59q70 -69 123 -87.5t153 -18.5q102 0 155.5 18.5t123.5 87.5l61 -59q-150 -174 -340 -174z" />
    <glyph glyph-name="f_f" unicode="ff" horiz-adv-x="1538" 
d="M401 0h-221v834h-153v184h155q19 169 144 261.5t340 92.5h100v-164h-135q-128 0 -185.5 -42t-48.5 -148h369v-184h-365v-834zM1153 0h-219v834h-156v184h158q19 169 142.5 261.5t338.5 92.5h101v-164h-136q-127 0 -183.5 -42t-49.5 -148h369v-184h-365v-834z" />
    <glyph glyph-name="fi" unicode="fi" horiz-adv-x="1212" 
d="M401 0h-221v834h-153v184h155q19 169 144 261.5t340 92.5h100v-164h-135q-128 0 -185.5 -42t-48.5 -148h369v-184h-365v-834zM1110 1137h-221v235h221v-235zM1110 0h-221v1018h221v-1018z" />
    <glyph glyph-name="fl" unicode="fl" horiz-adv-x="1212" 
d="M401 0h-221v834h-153v184h155q19 169 144 261.5t340 92.5h100v-164h-135q-128 0 -185.5 -42t-48.5 -148h369v-184h-365v-834zM1110 0h-221v1372h221v-1372z" />
    <glyph glyph-name="f_f_i" unicode="ffi" horiz-adv-x="1966" 
d="M401 0h-221v834h-153v184h155q19 169 144 261.5t340 92.5h100v-164h-135q-128 0 -185.5 -42t-48.5 -148h369v-184h-365v-834zM1153 0h-219v834h-156v184h158q19 169 142.5 261.5t338.5 92.5h101v-164h-136q-127 0 -183.5 -42t-49.5 -148h369v-184h-365v-834zM1862 1137
h-220v235h220v-235zM1862 0h-220v1018h220v-1018z" />
    <glyph glyph-name="f_f_l" unicode="ffl" horiz-adv-x="1966" 
d="M401 0h-221v834h-153v184h155q19 169 144 261.5t340 92.5h100v-164h-135q-128 0 -185.5 -42t-48.5 -148h369v-184h-365v-834zM1153 0h-219v834h-156v184h158q19 169 142.5 261.5t338.5 92.5h101v-164h-136q-127 0 -183.5 -42t-49.5 -148h369v-184h-365v-834zM1862 0h-220
v1372h220v-1372z" />
    <glyph glyph-name="f_b" unicode="fb" horiz-adv-x="2078" 
d="M401 0h-221v834h-153v184h155q19 169 144 261.5t340 92.5h100v-164h-135q-128 0 -185.5 -42t-48.5 -148h369v-184h-365v-834zM1092 0h-203v1372h221v-631h12q32 136 138 216.5t282 80.5q231 0 358.5 -144t127.5 -386q0 -240 -130 -384t-368 -144q-173 0 -282.5 80.5
t-141.5 232.5h-14v-293zM1110 498q0 -157 91.5 -236.5t258.5 -79.5q174 0 260 74.5t86 251.5q0 178 -86 254t-256 76q-173 0 -263.5 -81.5t-90.5 -242.5v-16z" />
    <glyph glyph-name="f_f_b" unicode="ffb" horiz-adv-x="2832" 
d="M401 0h-221v834h-153v184h155q19 169 144 261.5t340 92.5h100v-164h-135q-128 0 -185.5 -42t-48.5 -148h369v-184h-365v-834zM1153 0h-219v834h-156v184h158q19 169 142.5 261.5t338.5 92.5h101v-164h-136q-127 0 -183.5 -42t-49.5 -148h369v-184h-365v-834zM1845 0h-203
v1372h220v-631h14q31 136 136.5 216.5t281.5 80.5q231 0 359 -144t128 -386q0 -241 -130.5 -384.5t-369.5 -143.5q-173 0 -282 80.5t-141 232.5h-13v-293zM1862 498q0 -157 91.5 -236.5t260.5 -79.5q173 0 258.5 74.5t85.5 251.5q0 178 -86 254t-256 76q-173 0 -263.5 -81.5
t-90.5 -242.5v-16z" />
    <glyph glyph-name="f_f_h" unicode="ffh" horiz-adv-x="2809" 
d="M401 0h-221v834h-153v184h155q19 169 144 261.5t340 92.5h100v-164h-135q-128 0 -185.5 -42t-48.5 -148h369v-184h-365v-834zM1153 0h-219v834h-156v184h158q19 169 142.5 261.5t338.5 92.5h101v-164h-136q-127 0 -183.5 -42t-49.5 -148h369v-184h-365v-834zM1862 0h-220
v1372h220v-665h14q13 67 43.5 124.5t80.5 105t125.5 74.5t168.5 27q204 0 312 -119t108 -313v-606h-222v553q0 153 -71.5 220t-231.5 67q-174 0 -250.5 -88.5t-76.5 -257.5v-494z" />
    <glyph glyph-name="f_f_j" unicode="ffj" horiz-adv-x="1968" 
d="M401 0h-221v834h-153v184h155q19 169 144 261.5t340 92.5h100v-164h-135q-128 0 -185.5 -42t-48.5 -148h369v-184h-365v-834zM1153 0h-219v834h-156v184h158q19 169 142.5 261.5t338.5 92.5h101v-164h-136q-127 0 -183.5 -42t-49.5 -148h369v-184h-365v-834zM1864 1137
h-219v235h219v-235zM1503 -348h-63v170h71q67 0 100.5 30t33.5 97v1069h219v-1030q0 -181 -94 -258.5t-267 -77.5z" />
    <glyph glyph-name="f_f_k" unicode="ffk" horiz-adv-x="2721" 
d="M401 0h-221v834h-153v184h155q19 169 144 261.5t340 92.5h100v-164h-135q-128 0 -185.5 -42t-48.5 -148h369v-184h-365v-834zM1153 0h-219v834h-156v184h158q19 169 142.5 261.5t338.5 92.5h101v-164h-136q-127 0 -183.5 -42t-49.5 -148h369v-184h-365v-834zM1862 0h-220
v1372h220v-758h292l304 404h260l-385 -490l381 -528h-260l-300 416h-292v-416z" />
    <glyph glyph-name="f_h" unicode="fh" horiz-adv-x="2056" 
d="M401 0h-221v834h-153v184h155q19 169 144 261.5t340 92.5h100v-164h-135q-128 0 -185.5 -42t-48.5 -148h369v-184h-365v-834zM1110 0h-221v1372h221v-665h12q14 67 44.5 124.5t80.5 105t125.5 74.5t169.5 27q204 0 312 -119t108 -313v-606h-221v553q0 153 -72 220
t-231 67q-175 0 -251.5 -88.5t-76.5 -257.5v-494z" />
    <glyph glyph-name="f_j" unicode="fj" horiz-adv-x="1214" 
d="M401 0h-221v834h-153v184h155q19 169 144 261.5t340 92.5h100v-164h-135q-128 0 -185.5 -42t-48.5 -148h369v-184h-365v-834zM1112 1137h-219v235h219v-235zM752 -348h-64v170h70q67 0 101 30t34 97v1069h219v-1030q0 -181 -93.5 -258.5t-266.5 -77.5z" />
    <glyph glyph-name="f_k" unicode="fk" horiz-adv-x="1970" 
d="M401 0h-221v834h-153v184h155q19 169 144 261.5t340 92.5h100v-164h-135q-128 0 -185.5 -42t-48.5 -148h369v-184h-365v-834zM1110 0h-221v1372h221v-758h291l305 404h258l-383 -490l381 -528h-260l-301 416h-291v-416z" />
    <glyph glyph-name="f_t" unicode="ft" horiz-adv-x="1515" 
d="M401 0h-221v834h-153v184h155q19 169 144 261.5t340 92.5h100v-164h-135q-128 0 -185.5 -42t-48.5 -148h492v223h221v-223h369v-184h-369v-478q0 -91 42 -124t142 -33h185v-199h-236q-354 0 -354 344v490h-488v-834z" />
    <glyph glyph-name=".notdef" horiz-adv-x="1548" 
d="M774 -10q-192 0 -339 83.5t-224.5 227t-77.5 324.5q0 180 77.5 324t224.5 228.5t339 84.5t339 -84.5t224.5 -228.5t77.5 -324q0 -181 -77.5 -324.5t-224.5 -227t-339 -83.5zM774 162q119 0 199 22t135 76t79.5 142.5t24.5 222.5t-24.5 222.5t-79.5 142t-134.5 75.5
t-199.5 22t-199.5 -22t-134.5 -75.5t-79.5 -142t-24.5 -222.5t24.5 -222.5t79.5 -142.5t135 -76t199 -22zM618 670q-51 0 -81.5 26.5t-30.5 69.5t30.5 69.5t81.5 26.5q49 0 80 -26.5t31 -69.5t-31 -69.5t-80 -26.5zM932 670q-49 0 -80 26.5t-31 69.5t31 69.5t80 26.5
q51 0 80.5 -26.5t29.5 -69.5t-29.5 -69.5t-80.5 -26.5zM774 324q-109 0 -190 48t-150 126l64 59q70 -69 123 -87.5t153 -18.5q102 0 155.5 18.5t123.5 87.5l61 -59q-150 -174 -340 -174z" />
    <glyph glyph-name=".null" horiz-adv-x="1228" 
 />
    <glyph glyph-name="nonmarkingreturn" horiz-adv-x="682" 
 />
    <glyph glyph-name="CR" unicode="&#xd;" horiz-adv-x="1228" 
 />
    <glyph glyph-name="space" unicode=" " horiz-adv-x="350" 
 />
    <glyph glyph-name="exclam" unicode="!" horiz-adv-x="473" 
d="M344 451h-215q0 105 -16.5 404.5t-16.5 373.5v143h281v-143q0 -74 -16.5 -374.5t-16.5 -403.5zM360 0h-249v303h249v-303z" />
    <glyph glyph-name="quotedbl" unicode="&#x22;" horiz-adv-x="673" 
d="M573 852h-129l-49 264v256h228v-256zM229 852h-129l-49 264v256h228v-256z" />
    <glyph glyph-name="numbersign" unicode="#" horiz-adv-x="1738" 
d="M416 0h-217l116 305h-274v197h354l129 340h-325v196h403l129 334h217l-129 -334h373l129 334h217l-129 -334h289v-196h-369l-129 -340h338v-197h-416l-118 -305h-218l119 305h-373zM735 846l-133 -348h387l133 348h-387z" />
    <glyph glyph-name="dollar" unicode="$" horiz-adv-x="1308" 
d="M764 -205h-205v191q-245 23 -372.5 144t-127.5 319v12h222v-33q0 -128 89 -187t308 -59q193 0 273.5 44t80.5 143q0 87 -54.5 128.5t-189.5 67.5l-335 56q-396 70 -396 372q0 72 28.5 136.5t86.5 120.5t157.5 93t229.5 46v188h205v-191q231 -25 349 -149t118 -313v-13
h-219v27q0 130 -88.5 191t-296.5 61q-184 0 -266 -45t-82 -139q0 -86 51.5 -125.5t179.5 -67.5l334 -57q409 -73 409 -375q0 -74 -28.5 -140t-86 -121t-153.5 -91t-221 -45v-189z" />
    <glyph glyph-name="percent" unicode="%" horiz-adv-x="1644" 
d="M393 713q-165 0 -258.5 96t-93.5 246q0 147 93.5 243.5t258.5 96.5q166 0 259 -96.5t93 -243.5q0 -150 -93 -246t-259 -96zM348 0h-215l1165 1372h215zM393 862q100 0 144.5 47.5t44.5 145.5q0 96 -44.5 143t-144.5 47t-144 -47t-44 -143q0 -98 44 -145.5t144 -47.5z
M1251 -20q-166 0 -259 95t-93 244q0 148 93.5 244t258.5 96q166 0 259.5 -96t93.5 -244q0 -150 -93 -244.5t-260 -94.5zM1251 129q101 0 145 46.5t44 143.5q0 98 -44.5 145.5t-144.5 47.5t-144 -47.5t-44 -145.5t43.5 -144t144.5 -46z" />
    <glyph glyph-name="ampersand" unicode="&#x26;" horiz-adv-x="1443" 
d="M612 -20q-278 0 -429.5 100t-151.5 295q0 145 83 232.5t234 111.5v16q-130 20 -199 100.5t-69 196.5q0 176 131 265t371 89h284v-200h-313q-136 0 -195 -44.5t-59 -148.5q0 -101 65.5 -145.5t194.5 -44.5h447v215h217v-215h223v-185h-223v-141q0 -239 -150 -368
t-461 -129zM621 180q217 0 301 63t84 224v151h-488q-129 0 -196.5 -52t-67.5 -167q0 -117 82.5 -168t284.5 -51z" />
    <glyph glyph-name="quotesingle" unicode="'" horiz-adv-x="329" 
d="M229 852h-129l-49 264v256h228v-256z" />
    <glyph glyph-name="parenleft" unicode="(" horiz-adv-x="616" 
d="M596 -45l-113 -102q-63 60 -115 117.5t-109.5 139.5t-96.5 165.5t-64.5 191t-25.5 219.5t25.5 219.5t64.5 191t96.5 166t109.5 140t115 117.5l113 -103q-60 -78 -96 -129.5t-76 -123.5t-61.5 -137.5t-35.5 -153t-14 -187.5t14 -187.5t35.5 -153t61.5 -137.5t76 -123.5
t96 -129.5z" />
    <glyph glyph-name="parenright" unicode=")" horiz-adv-x="659" 
d="M51 1417l111 103q63 -59 115.5 -117t109.5 -140t96 -166t64.5 -191.5t25.5 -219.5t-25.5 -219.5t-64.5 -191t-96 -165.5t-109.5 -140t-115.5 -117l-111 102q60 79 95 129.5t76 123.5t62 138t35.5 152.5t14.5 187.5t-14.5 187.5t-35.5 152.5t-62 138t-76 123.5t-95 129.5z
" />
    <glyph glyph-name="asterisk" unicode="*" horiz-adv-x="763" 
d="M373 928l-121 -189l-133 97l141 172l-4 16l-215 57l51 156l209 -84l12 10l-12 223h164l-14 -223l14 -10l209 82l49 -156l-217 -55l-6 -16l143 -172l-133 -99l-119 191h-18z" />
    <glyph glyph-name="plus" unicode="+" horiz-adv-x="995" 
d="M594 260h-193v334h-329v184h329v334h193v-334h330v-184h-330v-334z" />
    <glyph glyph-name="comma" unicode="," horiz-adv-x="401" 
d="M139 -229h-73v135h67q28 0 39.5 10t11.5 41v43h-123v317h279v-358q0 -94 -52 -141t-149 -47z" />
    <glyph glyph-name="hyphen" unicode="-" horiz-adv-x="774" 
d="M713 508h-652v188h652v-188z" />
    <glyph glyph-name="period" unicode="." horiz-adv-x="401" 
d="M340 0h-279v317h279v-317z" />
    <glyph glyph-name="slash" unicode="/" horiz-adv-x="882" 
d="M195 -41h-236l737 1454h236z" />
    <glyph glyph-name="zero" unicode="0" horiz-adv-x="1441" 
d="M721 -20q-309 0 -484.5 189t-175.5 517q0 327 175.5 517t484.5 190t484 -190t175 -517q0 -328 -175 -517t-484 -189zM721 193q220 0 322 118.5t102 374.5t-102 375t-322 119t-323 -119t-103 -375t103 -374.5t323 -118.5z" />
    <glyph glyph-name="one" unicode="1" horiz-adv-x="679" 
d="M578 0h-222v1044h-336v158h66q118 0 186 37t111 133h195v-1372z" />
    <glyph glyph-name="two" unicode="2" horiz-adv-x="1284" 
d="M1219 0h-1149v145q0 191 85.5 298.5t297.5 179.5l327 112q124 45 172.5 95.5t48.5 140.5q0 111 -79.5 165t-259.5 54q-200 0 -288.5 -69t-88.5 -208v-24h-217v20q0 78 21 148t68 132t116 107t170.5 71t226.5 26q142 0 250 -32t173 -90.5t97.5 -134.5t32.5 -169
q0 -162 -98 -261t-289 -157l-289 -88q-140 -48 -194 -108.5t-54 -176.5l332 23h588v-199z" />
    <glyph glyph-name="three" unicode="3" horiz-adv-x="1333" 
d="M680 -20q-312 0 -465.5 125.5t-153.5 343.5v32h234v-28q0 -95 30.5 -150t114 -85t232.5 -30q212 0 299.5 52.5t87.5 175.5q0 202 -266 202h-383v185h352q252 0 252 184q0 103 -77 150t-271 47q-205 0 -288 -62.5t-83 -201.5v-15h-234v19q0 211 158 340t465 129
q263 0 406 -94.5t143 -268.5q0 -119 -69 -196.5t-199 -98.5v-16q152 -27 234.5 -111.5t82.5 -224.5q0 -193 -159 -298t-443 -105z" />
    <glyph glyph-name="four" unicode="4" horiz-adv-x="1413" 
d="M1137 0h-219v279h-877v153l840 940h256v-895h235v-198h-235v-279zM346 477h572v637h-17l-555 -620v-17z" />
    <glyph glyph-name="five" unicode="5" horiz-adv-x="1355" 
d="M690 -20q-299 0 -458.5 113t-159.5 321v22h225v-22q0 -121 95.5 -177.5t301.5 -56.5q187 0 273 61.5t86 204.5q0 140 -85 200.5t-274 60.5q-146 0 -238 -25t-151 -78l-14 4v-4l-205 14l74 754h1059v-198h-867l-49 -449l16 -2q60 65 180 112.5t277 47.5q241 0 374.5 -113
t133.5 -324q0 -217 -154 -341.5t-440 -124.5z" />
    <glyph glyph-name="six" unicode="6" horiz-adv-x="1409" 
d="M737 -20q-352 0 -509.5 168.5t-157.5 543.5q0 333 169.5 517t481.5 184q259 0 418 -121t159 -328v-16h-243v16q0 240 -334 240q-225 0 -320.5 -108t-95.5 -355v-109h19q38 104 164.5 171t314.5 67q254 0 392 -111t138 -315q0 -205 -156 -324.5t-440 -119.5zM725 190
q201 0 290 61t89 189q0 130 -88 191t-289 61q-395 0 -395 -243q0 -130 96 -194.5t297 -64.5z" />
    <glyph glyph-name="seven" unicode="7" horiz-adv-x="1165" 
d="M567 -2h-250q0 133 19.5 254t50.5 216.5t79.5 185t97.5 156.5t114.5 134t119 113.5t122.5 99.5v17h-900v198h1135v-178q-157 -142 -260 -263t-180.5 -264t-112.5 -305t-35 -364z" />
    <glyph glyph-name="eight" unicode="8" horiz-adv-x="1349" 
d="M676 -20q-297 0 -463 100t-166 295q0 137 88.5 224t245.5 120v16q-140 22 -217.5 101t-77.5 198q0 165 152.5 262t437.5 97t437.5 -97t152.5 -262q0 -120 -77 -198.5t-220 -100.5v-16q163 -33 249.5 -119t86.5 -225q0 -195 -167 -295t-462 -100zM676 788q197 0 284 48
t87 149t-82.5 150t-288.5 49q-205 0 -287 -49t-82 -150t87 -149t282 -48zM676 188q220 0 312.5 53.5t92.5 174.5q0 115 -93 168t-312 53t-312.5 -53t-93.5 -168q0 -122 92 -175t314 -53z" />
    <glyph glyph-name="nine" unicode="9" horiz-adv-x="1409" 
d="M690 -20q-260 0 -418.5 120.5t-158.5 327.5v16h241v-16q0 -240 336 -240q222 0 316 111.5t94 362.5v108h-19q-40 -109 -166.5 -178.5t-314.5 -69.5q-254 0 -392 111t-138 315q0 206 156.5 325.5t441.5 119.5q351 0 508 -166t157 -537q0 -337 -167 -523.5t-476 -186.5z
M676 680q198 0 297.5 65.5t99.5 188.5q0 124 -96.5 186t-298.5 62q-200 0 -288.5 -61t-88.5 -189q0 -130 87.5 -191t287.5 -61z" />
    <glyph glyph-name="colon" unicode=":" horiz-adv-x="401" 
d="M340 700h-279v318h279v-318zM340 0h-279v317h279v-317z" />
    <glyph glyph-name="semicolon" unicode=";" horiz-adv-x="401" 
d="M340 700h-279v318h279v-318zM139 -229h-73v135h67q28 0 39.5 10t11.5 41v43h-123v317h279v-358q0 -94 -52 -141t-149 -47z" />
    <glyph glyph-name="less" unicode="&#x3c;" horiz-adv-x="985" 
d="M57 815l852 326v-209l-651 -238v-16l651 -238v-209l-852 326v258z" />
    <glyph glyph-name="equal" unicode="=" horiz-adv-x="995" 
d="M924 813h-852v184h852v-184zM924 373h-852v184h852v-184z" />
    <glyph glyph-name="greater" unicode="&#x3e;" horiz-adv-x="985" 
d="M924 557l-852 -326v209l651 238v16l-651 238v209l852 -326v-258z" />
    <glyph glyph-name="question" unicode="?" horiz-adv-x="1218" 
d="M643 446h-221v70q0 88 49.5 145t149.5 99l147 63q95 41 136.5 81.5t41.5 107.5q0 42 -14 72.5t-49 56t-100.5 38.5t-161.5 13q-209 0 -296 -63t-87 -197v-60h-218v48q0 78 21.5 147t69.5 129t118.5 103.5t174.5 68.5t231 25q138 0 242.5 -29t166.5 -81t92.5 -118
t30.5 -145q0 -71 -23 -128.5t-66.5 -98.5t-87.5 -68t-105 -53l-148 -62q-57 -24 -75.5 -49.5t-18.5 -71.5v-43zM659 0h-249v303h249v-303z" />
    <glyph glyph-name="at" unicode="@" horiz-adv-x="1830" 
d="M813 84q-166 0 -267.5 106.5t-101.5 311.5q0 198 103 308t270 110q120 0 197.5 -60.5t101.5 -161.5h14v203h193v-518q0 -69 27.5 -100t89.5 -31q86 0 124 73t38 257q0 298 -159.5 440.5t-506.5 142.5q-362 0 -534.5 -154.5t-172.5 -502.5q0 -339 162.5 -491t495.5 -152
q185 0 346 49l37 -150q-185 -69 -404 -69q-387 0 -611 217.5t-224 595.5q0 384 248 613t667 229q390 0 617 -201.5t227 -550.5q0 -236 -99.5 -375t-265.5 -139q-130 0 -207 58.5t-96 160.5h-10q-28 -96 -102 -157.5t-197 -61.5zM649 502q0 -137 57 -199.5t177 -62.5
q108 0 170.5 59.5t62.5 177.5v49q0 117 -62.5 176.5t-170.5 59.5q-120 0 -177 -62t-57 -198z" />
    <glyph glyph-name="A" unicode="A" horiz-adv-x="1536" 
d="M246 0h-246l612 1372h312l612 -1372h-250l-158 356h-725zM678 973l-186 -418h548l-186 418l-80 194h-16z" />
    <glyph glyph-name="B" unicode="B" horiz-adv-x="1370" 
d="M889 0h-797v1372h768q198 0 309 -88t111 -250q0 -127 -74 -208t-225 -99v-14q171 -20 259.5 -108t88.5 -226q0 -178 -114.5 -278.5t-325.5 -100.5zM311 1174v-377h518q232 0 232 188q0 97 -55 143t-170 46h-525zM311 614v-415h553q125 0 184.5 50t59.5 161
q0 106 -60.5 155t-183.5 49h-553z" />
    <glyph glyph-name="C" unicode="C" horiz-adv-x="1488" 
d="M770 -20q-320 0 -514.5 193t-194.5 513t194.5 513.5t514.5 193.5q193 0 341.5 -64.5t232 -186t83.5 -282.5v-29h-243v29q0 322 -412 322q-243 0 -360 -120.5t-117 -375.5t117 -374t360 -119q412 0 412 321v27h243v-27q0 -245 -181 -389.5t-476 -144.5z" />
    <glyph glyph-name="D" unicode="D" horiz-adv-x="1495" 
d="M739 0h-624v1372h624q320 0 507.5 -184.5t187.5 -501.5t-187.5 -501.5t-507.5 -184.5zM739 1174h-405v-975h405q241 0 351 113t110 374t-110 374.5t-351 113.5z" />
    <glyph glyph-name="E" unicode="E" 
d="M1200 0h-1098v1372h1098v-198h-876v-386h845v-196h-845v-393h876v-199z" />
    <glyph glyph-name="F" unicode="F" horiz-adv-x="1255" 
d="M324 0h-222v1372h1092v-198h-870v-426h839v-197h-839v-551z" />
    <glyph glyph-name="G" unicode="G" horiz-adv-x="1531" 
d="M733 -20q-303 0 -487.5 193t-184.5 513q0 321 199 514t528 193q295 0 477.5 -139.5t182.5 -374.5v-17h-244v17q0 303 -422 303q-249 0 -368 -120.5t-119 -375.5t117 -374t360 -119q246 0 351.5 74t105.5 247v18h-508v168h727v-700h-201v297h-14q-43 -152 -171.5 -234.5
t-328.5 -82.5z" />
    <glyph glyph-name="H" unicode="H" horiz-adv-x="1454" 
d="M324 0h-222v1372h222v-581h806v581h220v-1372h-220v592h-806v-592z" />
    <glyph glyph-name="I" unicode="I" horiz-adv-x="425" 
d="M324 0h-222v1372h222v-1372z" />
    <glyph glyph-name="J" unicode="J" horiz-adv-x="1292" 
d="M618 -20q-299 0 -438 143t-139 399v64h233v-66q0 -175 74.5 -251t269.5 -76t272 74.5t77 242.5v862h231v-860q0 -121 -32 -216.5t-100 -167t-181 -110t-267 -38.5z" />
    <glyph glyph-name="K" unicode="K" horiz-adv-x="1417" 
d="M324 0h-222v1372h222v-586h415l402 586h262l-479 -678l477 -694h-262l-396 573h-419v-573z" />
    <glyph glyph-name="L" unicode="L" horiz-adv-x="1210" 
d="M1169 0h-1067v1372h222v-1173h845v-199z" />
    <glyph glyph-name="M" unicode="M" horiz-adv-x="1855" 
d="M324 0h-222v1372h301l396 -794l125 -285h16l121 285l391 794h301v-1372h-221v842l8 198h-16l-84 -198l-379 -760h-266l-379 760l-84 198h-17l9 -198v-842z" />
    <glyph glyph-name="N" unicode="N" horiz-adv-x="1462" 
d="M324 0h-222v1372h238l614 -803l179 -256h16l-10 248v811h221v-1372h-238l-618 801l-172 241h-17l9 -237v-805z" />
    <glyph glyph-name="O" unicode="O" horiz-adv-x="1554" 
d="M776 -20q-323 0 -519 193t-196 513t196 513.5t519 193.5q326 0 521.5 -193t195.5 -514t-195.5 -513.5t-521.5 -192.5zM776 193q246 0 365 119t119 374t-119 375.5t-365 120.5t-363.5 -120.5t-117.5 -375.5t117.5 -374t363.5 -119z" />
    <glyph glyph-name="P" unicode="P" horiz-adv-x="1318" 
d="M324 0h-222v1372h672q233 0 373.5 -127t140.5 -352q0 -224 -141 -351.5t-373 -127.5h-450v-414zM754 1174h-430v-562h430q159 0 236 66t77 215t-77 215t-236 66z" />
    <glyph glyph-name="Q" unicode="Q" horiz-adv-x="1554" 
d="M1227 -289h-279l-198 269q-313 9 -501 201t-188 505q0 320 196 513.5t519 193.5q326 0 521.5 -193t195.5 -514q0 -263 -134.5 -443t-369.5 -239zM776 193q246 0 365 119t119 374t-119 375.5t-365 120.5t-363.5 -120.5t-117.5 -375.5t117.5 -374t363.5 -119z" />
    <glyph glyph-name="R" unicode="R" horiz-adv-x="1376" 
d="M324 0h-222v1372h713q235 0 369.5 -106t134.5 -297q0 -170 -107 -270t-301 -111v-15q74 -20 119 -62t86 -114l230 -397h-254l-220 379q-32 57 -66.5 89t-90 48t-140.5 16h-251v-532zM324 1174v-472h489q142 0 209.5 55t67.5 181q0 124 -68 180t-209 56h-489z" />
    <glyph glyph-name="S" unicode="S" horiz-adv-x="1308" 
d="M678 -20q-302 0 -460.5 124t-158.5 345v12h222v-33q0 -128 89 -187t308 -59q193 0 273.5 44t80.5 143q0 87 -54.5 128.5t-189.5 67.5l-335 56q-396 70 -396 372q0 62 20 118.5t65.5 108.5t112.5 90t167.5 60.5t224.5 22.5q289 0 436.5 -129t147.5 -340v-13h-219v27
q0 130 -88.5 191t-296.5 61q-184 0 -266 -45t-82 -139q0 -86 51.5 -125.5t179.5 -67.5l334 -57q409 -73 409 -375q0 -81 -33.5 -151.5t-101 -127t-180.5 -89.5t-260 -33z" />
    <glyph glyph-name="T" unicode="T" horiz-adv-x="1349" 
d="M784 0h-219v1174h-540v198h1298v-198h-539v-1174z" />
    <glyph glyph-name="U" unicode="U" horiz-adv-x="1476" 
d="M737 -20q-307 0 -475 154.5t-168 434.5v803h219v-788q0 -207 99.5 -299t324.5 -92t324.5 92t99.5 299v788h221v-803q0 -280 -168.5 -434.5t-476.5 -154.5z" />
    <glyph glyph-name="V" unicode="V" horiz-adv-x="1466" 
d="M889 0h-314l-585 1372h262l475 -1149h16l471 1149h261z" />
    <glyph glyph-name="W" unicode="W" horiz-adv-x="2168" 
d="M717 0h-326l-362 1372h245l224 -868l61 -291h16l74 291l277 868h321l295 -868l78 -291h16l58 291l204 868h242l-344 -1372h-326l-276 799l-100 352h-19l-98 -352z" />
    <glyph glyph-name="X" unicode="X" horiz-adv-x="1472" 
d="M287 0h-287l553 682v16l-553 674h287l446 -541h17l436 541h287l-553 -676v-16l553 -680h-287l-445 551h-16z" />
    <glyph glyph-name="Y" unicode="Y" horiz-adv-x="1400" 
d="M807 0h-219v473l-602 899h270l324 -487l114 -174h17l112 174l322 487h272l-610 -903v-469z" />
    <glyph glyph-name="Z" unicode="Z" horiz-adv-x="1378" 
d="M1311 0h-1243v199l895 958v17h-869v198h1194v-198l-911 -959v-16h934v-199z" />
    <glyph glyph-name="bracketleft" unicode="[" horiz-adv-x="546" 
d="M526 -123h-424v1618h424v-184h-217v-1250h217v-184z" />
    <glyph glyph-name="backslash" unicode="\" horiz-adv-x="890" 
d="M932 -41h-236l-737 1454h236z" />
    <glyph glyph-name="bracketright" unicode="]" horiz-adv-x="571" 
d="M4 61h217v1250h-217v184h424v-1618h-424v184z" />
    <glyph glyph-name="asciicircum" unicode="^" horiz-adv-x="997" 
d="M246 573h-205l328 799h262l325 -799h-204l-244 598h-16z" />
    <glyph glyph-name="underscore" unicode="_" horiz-adv-x="778" 
d="M758 -160h-738v160h738v-160z" />
    <glyph glyph-name="a" unicode="a" horiz-adv-x="1159" 
d="M401 -20q-159 0 -251.5 70.5t-92.5 195.5q0 224 328 262l463 49v59q0 126 -60.5 177t-207.5 51q-143 0 -212 -50t-69 -161v-8h-219v8q0 177 139 291t377 114q234 0 351.5 -114t117.5 -306v-618h-203v254h-14q-40 -129 -157 -201.5t-290 -72.5zM279 260q0 -62 43.5 -91.5
t138.5 -29.5q181 0 284 71t103 216l-399 -45q-91 -11 -130.5 -37t-39.5 -84z" />
    <glyph glyph-name="b" unicode="b" horiz-adv-x="1292" 
d="M305 0h-203v1372h222v-631h12q32 136 138 216.5t282 80.5q231 0 358 -144t127 -386q0 -240 -130 -384t-368 -144q-173 0 -282.5 80.5t-141.5 232.5h-14v-293zM324 498q0 -157 91.5 -236.5t258.5 -79.5q174 0 260 74.5t86 251.5q0 178 -86 254t-256 76
q-173 0 -263.5 -81.5t-90.5 -242.5v-16z" />
    <glyph glyph-name="c" unicode="c" horiz-adv-x="1206" 
d="M616 -20q-251 0 -403 146t-152 382q0 238 152 384t403 146q231 0 380 -118.5t149 -307.5v-20h-219v12q0 117 -81.5 176.5t-232.5 59.5q-170 0 -250.5 -81.5t-80.5 -250.5q0 -166 80.5 -248t250.5 -82q151 0 232.5 59.5t81.5 176.5v14h219v-22q0 -189 -149 -307.5
t-380 -118.5z" />
    <glyph glyph-name="d" unicode="d" horiz-adv-x="1292" 
d="M551 -20q-237 0 -368.5 144t-131.5 384q0 241 129 385.5t357 144.5q174 0 280.5 -80.5t138.5 -216.5h13v631h221v-1372h-203v293h-14q-32 -152 -141 -232.5t-281 -80.5zM274 508q0 -176 86 -251t258 -75q166 0 258.5 79.5t92.5 236.5v16q0 161 -91.5 242.5t-263.5 81.5
q-168 0 -254 -76.5t-86 -253.5z" />
    <glyph glyph-name="e" unicode="e" horiz-adv-x="1204" 
d="M614 -20q-255 0 -404 138.5t-149 389.5q0 238 150.5 384t398.5 146q241 0 386 -127.5t145 -355.5q0 -55 -8 -96h-865q6 -152 86.5 -226.5t253.5 -74.5q301 0 301 190v17h221v-19q0 -162 -144 -264t-372 -102zM606 864q-165 0 -246 -71t-90 -211h662v4q0 278 -326 278z
" />
    <glyph glyph-name="f" unicode="f" horiz-adv-x="786" 
d="M401 0h-221v834h-153v184h155q19 169 144 261.5t340 92.5h100v-164h-135q-128 0 -185.5 -42t-48.5 -148h369v-184h-365v-834z" />
    <glyph glyph-name="g" unicode="g" horiz-adv-x="1286" 
d="M545 92q-225 0 -354.5 129t-129.5 344q0 214 134 343.5t364 129.5q163 0 273 -71.5t137 -202.5h12v254h203v-899q0 -249 -143.5 -368.5t-403.5 -119.5q-230 0 -370 103t-140 284h219q0 -110 70 -156t233 -46q177 0 246.5 61.5t69.5 228.5v250h-15q-29 -120 -133 -192
t-272 -72zM285 565q0 -151 83.5 -216.5t247.5 -65.5q170 0 259.5 70t89.5 204v29q0 127 -89.5 193.5t-252.5 66.5q-167 0 -252.5 -65t-85.5 -216z" />
    <glyph glyph-name="h" unicode="h" 
d="M324 0h-222v1372h222v-665h12q14 67 44.5 124.5t80.5 105t125.5 74.5t169.5 27q204 0 311 -119t107 -313v-606h-220v553q0 153 -72 220t-231 67q-174 0 -250.5 -88.5t-76.5 -257.5v-494z" />
    <glyph glyph-name="i" unicode="i" horiz-adv-x="425" 
d="M324 1137h-222v235h222v-235zM324 0h-222v1018h222v-1018z" />
    <glyph glyph-name="j" unicode="j" horiz-adv-x="428" 
d="M326 1137h-222v235h222v-235zM-35 -348h-63v170h69q67 0 100 30t33 97v1069h222v-1030q0 -181 -94 -258.5t-267 -77.5z" />
    <glyph glyph-name="k" unicode="k" horiz-adv-x="1183" 
d="M324 0h-222v1372h222v-758h290l306 404h258l-383 -490l381 -528h-261l-301 416h-290v-416z" />
    <glyph glyph-name="l" unicode="l" horiz-adv-x="425" 
d="M324 0h-222v1372h222v-1372z" />
    <glyph glyph-name="m" unicode="m" horiz-adv-x="1998" 
d="M324 0h-222v1018h203v-307h12q11 67 38 123.5t72.5 103.5t117.5 73.5t164 26.5q167 0 264.5 -91.5t120.5 -244.5h12q11 68 38.5 126t74 106.5t120 76t166.5 27.5q192 0 295 -117.5t103 -308.5v-612h-220v553q0 151 -64.5 219t-211.5 68q-159 0 -227 -81.5t-68 -254.5
v-504h-219v553q0 152 -64 219.5t-211 67.5q-160 0 -227 -81t-67 -255v-504z" />
    <glyph glyph-name="n" unicode="n" horiz-adv-x="1259" 
d="M324 0h-222v1018h203v-316h14q26 142 134.5 239t289.5 97q137 0 234 -58t142.5 -152.5t45.5 -215.5v-612h-221v553q0 145 -70.5 216t-226.5 71q-165 0 -244 -84t-79 -252v-504z" />
    <glyph glyph-name="o" unicode="o" horiz-adv-x="1247" 
d="M623 -20q-253 0 -409.5 146.5t-156.5 381.5q0 238 156 384t410 146q255 0 411 -146t156 -384q0 -235 -156.5 -381.5t-410.5 -146.5zM623 176q182 0 266 83.5t84 248.5q0 167 -84 251.5t-266 84.5q-181 0 -265 -84.5t-84 -251.5q0 -165 84 -248.5t265 -83.5z" />
    <glyph glyph-name="p" unicode="p" horiz-adv-x="1292" 
d="M324 -348h-222v1366h203v-283h19q31 144 139 223.5t285 79.5q232 0 362.5 -144.5t130.5 -385.5t-129 -384.5t-362 -143.5q-169 0 -278 82.5t-140 224.5h-8v-635zM324 492q0 -154 92 -233t258 -79q172 0 259 76t87 252q0 177 -87 252.5t-255 75.5q-172 0 -263 -82
t-91 -244v-18z" />
    <glyph glyph-name="q" unicode="q" horiz-adv-x="1292" 
d="M543 -20q-232 0 -362 144t-130 384t131 385t363 145q177 0 285 -79.5t139 -223.5h18v283h203v-1366h-221v635h-6q-33 -142 -142 -224.5t-278 -82.5zM274 508q0 -177 86 -252.5t258 -75.5q166 0 258.5 79t92.5 233v18q0 162 -91.5 244t-263.5 82q-168 0 -254 -75.5
t-86 -252.5z" />
    <glyph glyph-name="r" unicode="r" horiz-adv-x="1038" 
d="M324 0h-222v1018h203v-275h14q25 132 113.5 213.5t237.5 81.5q84 0 148.5 -28.5t104 -78.5t59 -113.5t19.5 -137.5v-133h-219v90q0 110 -50 161.5t-163 51.5q-128 0 -186.5 -69.5t-58.5 -209.5v-571z" />
    <glyph glyph-name="s" unicode="s" horiz-adv-x="1116" 
d="M584 -20q-247 0 -380.5 94t-133.5 270v6h221v-16q0 -99 66 -137.5t227 -38.5q145 0 201.5 30.5t56.5 100.5q0 62 -42 89t-153 42l-278 37q-310 40 -310 276q0 138 123.5 221.5t352.5 83.5q237 0 368 -93.5t131 -272.5v-6h-219v12q0 96 -62.5 140t-224.5 44
q-138 0 -195 -32t-57 -105q0 -60 40 -87t155 -42l236 -33q183 -23 267.5 -89t84.5 -191q0 -141 -129 -222t-346 -81z" />
    <glyph glyph-name="t" unicode="t" horiz-adv-x="806" 
d="M770 0h-233q-355 0 -355 344v490h-172v184h172v223h219v-223h369v-184h-369v-478q0 -90 43 -123.5t142 -33.5h184v-199z" />
    <glyph glyph-name="u" unicode="u" 
d="M526 -20q-206 0 -316 119.5t-110 306.5v612h219v-553q0 -145 72.5 -216t231.5 -71q329 0 329 336v504h219v-1018h-202v315h-13q-13 -67 -45 -125.5t-83.5 -106t-129 -75.5t-172.5 -28z" />
    <glyph glyph-name="v" unicode="v" horiz-adv-x="1245" 
d="M756 0h-271l-475 1018h244l362 -803h17l362 803h240z" />
    <glyph glyph-name="w" unicode="w" horiz-adv-x="1804" 
d="M590 0h-275l-305 1018h230l170 -578l47 -262h16l76 283l213 557h282l216 -557l75 -283h17l47 262l170 578h225l-309 -1018h-275l-223 586l-78 250h-16l-78 -250z" />
    <glyph glyph-name="x" unicode="x" horiz-adv-x="1230" 
d="M270 0h-264l438 504v12l-438 502h268l338 -385h13l333 385h267l-439 -498v-12l439 -508h-269l-338 389h-14z" />
    <glyph glyph-name="y" unicode="y" horiz-adv-x="1210" 
d="M266 -348h-145v201h198q67 0 101 20.5t57 73.5l25 53l-502 1018h248l260 -541l100 -244h17l96 246l240 539h243l-530 -1129q-62 -133 -154.5 -185t-253.5 -52z" />
    <glyph glyph-name="z" unicode="z" horiz-adv-x="1148" 
d="M1102 0h-1055v190l518 463l215 162v16l-215 -8h-487v195h993v-191l-555 -487l-188 -139v-17l188 11h586v-195z" />
    <glyph glyph-name="braceleft" unicode="{" horiz-adv-x="624" 
d="M594 -123h-41q-163 0 -245.5 80.5t-82.5 224.5v291q0 60 -24 82.5t-90 22.5h-70v217h70q66 0 90 22t24 82v291q0 144 82.5 224.5t245.5 80.5h41v-213h-51q-61 0 -87 -25t-26 -90v-280q0 -193 -186 -193v-16q186 0 186 -193v-280q0 -65 26 -90t87 -25h51v-213z" />
    <glyph glyph-name="bar" unicode="|" horiz-adv-x="411" 
d="M307 -205h-205v1782h205v-1782z" />
    <glyph glyph-name="braceright" unicode="}" horiz-adv-x="628" 
d="M35 1495h41q163 0 245 -80.5t82 -224.5v-291q0 -60 24.5 -82t90.5 -22h70v-217h-70q-66 0 -90.5 -22.5t-24.5 -82.5v-291q0 -144 -82 -224.5t-245 -80.5h-41v213h51q61 0 87 25t26 90v280q0 193 186 193v16q-186 0 -186 193v280q0 65 -26 90t-87 25h-51v213z" />
    <glyph glyph-name="asciitilde" unicode="~" horiz-adv-x="1148" 
d="M301 504h-186v133q0 233 211 233q34 0 70.5 -12t61 -25t64.5 -38l117 -47q9 -5 39.5 -21t43 -22t33.5 -12.5t38 -6.5q34 0 48.5 18.5t14.5 59.5v94h186v-139q0 -221 -194 -221q-40 0 -84 12.5t-65.5 22.5t-73.5 36l-125 54q-29 20 -45 30t-40.5 19.5t-45.5 9.5
q-38 0 -53 -21.5t-15 -62.5v-94z" />
    <glyph glyph-name="nbspace" unicode="&#xa0;" horiz-adv-x="350" 
 />
    <glyph glyph-name="exclamdown" unicode="&#xa1;" horiz-adv-x="423" 
d="M86 1024h252v-303h-252v303zM104 573h215q0 -105 16.5 -404.5t16.5 -373.5v-143h-280v143q0 74 16 374.5t16 403.5z" />
    <glyph glyph-name="cent" unicode="&#xa2;" horiz-adv-x="1185" 
d="M705 -205h-205v195q-201 32 -320 172.5t-119 345.5q0 208 118.5 348t320.5 174v199h205v-195q197 -24 318.5 -138t121.5 -284v-20h-219v12q0 117 -81.5 176.5t-232.5 59.5q-170 0 -250.5 -81.5t-80.5 -250.5q0 -166 80.5 -248t250.5 -82q151 0 232.5 59.5t81.5 176.5v14
h219v-22q0 -170 -121.5 -284t-318.5 -138v-189z" />
    <glyph glyph-name="sterling" unicode="&#xa3;" horiz-adv-x="1341" 
d="M909 563h-385q43 -91 43 -155q0 -71 -40.5 -121t-102.5 -74v-14h866v-199h-1229v199h93q101 0 164 44.5t63 118.5q0 63 -68 179l-14 22h-238v185h134q-64 128 -64 241q0 84 35.5 156.5t105 128t180.5 87.5t253 32q151 0 264 -37t179 -103t98 -149.5t32 -185.5v-44h-217
v41q0 146 -79.5 211.5t-279.5 65.5q-194 0 -273 -58.5t-79 -170.5q0 -37 12.5 -79t24 -66.5t35.5 -69.5h487v-185z" />
    <glyph glyph-name="yen" unicode="&#xa5;" horiz-adv-x="1441" 
d="M831 0h-219v362h-575v185h524l-112 166h-412v184h287l-322 475h285l262 -407l168 -295h16l166 295l262 407h279l-322 -475h287v-184h-412l-112 -166h524v-185h-574v-362z" />
    <glyph glyph-name="brokenbar" unicode="&#xa6;" horiz-adv-x="409" 
d="M307 768h-205v809h205v-809zM307 -205h-205v809h205v-809z" />
    <glyph glyph-name="section" unicode="&#xa7;" horiz-adv-x="1079" 
d="M569 -20q-236 0 -369.5 96t-133.5 270v6h221v-16q0 -66 22 -103.5t85.5 -59t180.5 -21.5q135 0 192.5 29.5t57.5 94.5q0 52 -41 78.5t-141 40.5l-313 45q-143 21 -215 75.5t-72 150.5q0 80 57 132t158 64v12q-95 19 -155 75t-60 153q0 132 124.5 213.5t338.5 81.5
q240 0 376 -96t136 -269v-6h-219v14q0 66 -23.5 104.5t-89.5 59.5t-186 21q-130 0 -186 -30t-56 -95q0 -55 40.5 -80t143.5 -39l338 -47q262 -33 262 -211q0 -86 -59 -142t-160 -67v-12q95 -21 157 -77.5t62 -150.5q0 -132 -127 -213t-346 -81zM422 584l166 -23
q127 -20 182 12.5t55 96.5q0 53 -37 79.5t-126 38.5l-170 23q-234 31 -234 -106q0 -55 37 -81t127 -40z" />
    <glyph glyph-name="copyright" unicode="&#xa9;" horiz-adv-x="1568" 
d="M784 -4q-335 0 -534 189t-199 501t199 501t534 189t534.5 -189t199.5 -501t-199.5 -501t-534.5 -189zM784 156q288 0 421.5 129t133.5 401t-133.5 401.5t-421.5 129.5t-422.5 -129.5t-134.5 -401.5t134 -401t423 -129zM791 315q-182 0 -292 102t-110 269
q0 168 109.5 269.5t292.5 101.5q165 0 271.5 -84t106.5 -213v-17h-165v13q0 149 -213 149q-118 0 -177 -51t-59 -168t59 -168t177 -51q213 0 213 149v13h165v-17q0 -129 -106.5 -213t-271.5 -84z" />
    <glyph glyph-name="ordfeminine" unicode="&#xaa;" horiz-adv-x="446" 
d="M176 1073q-53 0 -84 21.5t-31 60.5q0 70 107 82l125 14v9q0 31 -14 44t-54 13q-38 0 -51.5 -11t-13.5 -38v-2h-92v4q0 55 44 89t119 34t114.5 -37t39.5 -103v-174h-84v58h-6q-23 -64 -119 -64zM152 1161q0 -26 49 -26q96 0 96 65l-111 -14q-20 -3 -27 -8.5t-7 -16.5z" />
    <glyph glyph-name="guillemotleft" unicode="&#xab;" horiz-adv-x="1003" 
d="M532 743l410 285v-227l-258 -168v-17l258 -167v-228l-410 285v237zM41 743l410 285v-227l-258 -168v-17l258 -167v-228l-410 285v237z" />
    <glyph glyph-name="softhyphen" unicode="&#xad;" horiz-adv-x="1228" 
d="M713 508h-652v188h652v-188z" />
    <glyph glyph-name="registered" unicode="&#xae;" horiz-adv-x="823" 
d="M412 696q-166 0 -268.5 95t-102.5 247t102.5 247t268.5 95q165 0 267.5 -95.5t102.5 -246.5t-102.5 -246.5t-267.5 -95.5zM412 795q131 0 196.5 57t65.5 186q0 130 -65 187t-197 57t-198.5 -57t-66.5 -187q0 -128 66.5 -185.5t198.5 -57.5zM340 899h-82v287h193
q122 0 122 -90q0 -38 -22.5 -59t-58.5 -23v-4q18 -6 29 -16t24 -33l39 -62h-95l-34 57q-11 22 -22.5 29.5t-35.5 7.5h-57v-94zM340 1114v-63h113q22 0 30.5 7.5t8.5 24.5q0 18 -8.5 24.5t-30.5 6.5h-113z" />
    <glyph glyph-name="degree" unicode="&#xb0;" horiz-adv-x="481" 
d="M240 1022q-90 0 -143.5 51.5t-53.5 134.5q0 81 54 133t143 52q91 0 144.5 -52t53.5 -133q0 -83 -53.5 -134.5t-144.5 -51.5zM240 1122q49 0 70.5 20.5t21.5 65.5q0 43 -21.5 63.5t-70.5 20.5q-47 0 -68.5 -20.5t-21.5 -63.5q0 -44 21.5 -65t68.5 -21z" />
    <glyph glyph-name="plusminus" unicode="&#xb1;" horiz-adv-x="997" 
d="M924 113h-852v184h331v297h-331v184h331v334h191v-334h330v-184h-330v-297h330v-184z" />
    <glyph glyph-name="twosuperior" unicode="&#xb2;" horiz-adv-x="753" 
d="M705 696h-639v62q0 103 48.5 159.5t149.5 90.5l172 55q64 22 90.5 42.5t26.5 57.5q0 46 -34 67t-126 21q-96 0 -138 -28t-42 -93v-18h-160v23q0 108 89 183t259 75q150 0 231 -61.5t81 -160.5q0 -83 -55 -129.5t-175 -78.5l-170 -48q-47 -18 -68.5 -41t-21.5 -59l248 21
h234v-140z" />
    <glyph glyph-name="threesuperior" unicode="&#xb3;" horiz-adv-x="776" 
d="M408 686q-176 0 -266.5 63t-90.5 171v22h160v-16q0 -56 39.5 -78.5t148.5 -22.5q94 0 133 18.5t39 71.5q0 49 -33 64.5t-114 15.5h-156v107h135q81 0 111.5 14.5t30.5 61.5q0 41 -33 60t-123 19q-102 0 -140 -22t-38 -74v-14h-160v14q0 103 92 167.5t256 64.5
q143 0 225.5 -46.5t82.5 -134.5q0 -131 -150 -151v-10q83 -8 130.5 -49t47.5 -115q0 -99 -90.5 -150t-236.5 -51z" />
    <glyph glyph-name="paragraph" unicode="&#xb6;" horiz-adv-x="1411" 
d="M868 0h-219v553h-129q-103 0 -189 25.5t-151.5 75.5t-102 129.5t-36.5 181.5t36.5 181t102 127.5t151.5 73.5t189 25h348v-1372zM1309 0h-222v1372h222v-1372z" />
    <glyph glyph-name="periodcentered" unicode="&#xb7;" horiz-adv-x="423" 
d="M350 512h-278v317h278v-317z" />
    <glyph glyph-name="onesuperior" unicode="&#xb9;" horiz-adv-x="493" 
d="M379 686h-162v471h-203v131h70q62 0 94.5 18t50.5 66h150v-686z" />
    <glyph glyph-name="ordmasculine" unicode="&#xba;" horiz-adv-x="462" 
d="M231 1073q-77 0 -123.5 45t-46.5 115t46.5 115t123.5 45t123.5 -45t46.5 -115t-46.5 -115t-123.5 -45zM231 1157q42 0 61 18.5t19 57.5t-19 57.5t-61 18.5t-60.5 -18.5t-18.5 -57.5t18.5 -57.5t60.5 -18.5z" />
    <glyph glyph-name="guillemotright" unicode="&#xbb;" horiz-adv-x="1003" 
d="M471 506l-410 -285v228l256 167v17l-256 168v227l410 -285v-237zM963 506l-410 -285v228l256 167v17l-256 168v227l410 -285v-237z" />
    <glyph glyph-name="onequarter" unicode="&#xbc;" horiz-adv-x="1527" 
d="M424 686h-162v471h-203v131h70q61 0 93 18t52 66h150v-686zM256 0h-215l1165 1372h215zM1350 0h-162v137h-440v123l413 426h189v-405h127v-144h-127v-137zM940 281h248v247h-12l-236 -233v-14z" />
    <glyph glyph-name="onehalf" unicode="&#xbd;" horiz-adv-x="1622" 
d="M424 686h-162v471h-203v131h70q61 0 93 18t52 66h150v-686zM256 0h-215l1165 1372h215zM1571 0h-639v61q0 102 49 159t149 91l175 56q63 22 88.5 42t25.5 58q0 46 -33.5 67t-125.5 21q-96 0 -138.5 -28t-42.5 -93v-18h-159v22q0 108 90 183t260 75q149 0 230 -61t81 -160
q0 -83 -55 -130t-174 -79l-172 -47q-46 -18 -67 -41t-21 -59l245 20h234v-139z" />
    <glyph glyph-name="threequarters" unicode="&#xbe;" horiz-adv-x="1669" 
d="M408 686q-176 0 -266.5 63t-90.5 171v22h160v-16q0 -56 39.5 -78.5t148.5 -22.5q93 0 131.5 18.5t38.5 71.5q0 49 -32 64.5t-113 15.5h-156v107h133q82 0 112 14.5t30 61.5q0 41 -32 60t-122 19q-102 0 -140 -22t-38 -74v-14h-160v14q0 103 92 167.5t256 64.5
q142 0 224 -46.5t82 -134.5q0 -131 -148 -151v-10q81 -8 128.5 -49t47.5 -115q0 -99 -89.5 -150t-235.5 -51zM414 0h-215l1165 1372h215zM1470 -2h-161v137h-441v125l414 424h188v-403h127v-146h-127v-137zM1061 281h248v247h-13l-235 -235v-12z" />
    <glyph glyph-name="questiondown" unicode="&#xbf;" horiz-adv-x="1198" 
d="M539 1024h249v-303h-249v303zM555 578h219v-70q0 -88 -49.5 -145t-149.5 -99l-145 -61q-96 -43 -138 -84t-42 -107q0 -42 14.5 -72.5t50 -56t101.5 -38.5t162 -13q209 0 296 63t87 197v60h217v-48q0 -78 -21.5 -147t-69.5 -129t-118.5 -103.5t-174.5 -68.5t-231 -25
q-138 0 -242.5 29t-166.5 81t-92.5 118t-30.5 145q0 71 23 128.5t66.5 98.5t87 68t103.5 53l150 62q56 24 75 50t19 71v43z" />
    <glyph glyph-name="Agrave" unicode="&#xc0;" horiz-adv-x="1536" 
d="M885 1495h-234l-338 260h310zM246 0h-246l612 1372h312l612 -1372h-250l-158 356h-725zM678 973l-186 -418h548l-186 418l-80 194h-16z" />
    <glyph glyph-name="Aacute" unicode="&#xc1;" horiz-adv-x="1536" 
d="M887 1495h-234l260 260h312zM246 0h-246l612 1372h312l612 -1372h-250l-158 356h-725zM678 973l-186 -418h548l-186 418l-80 194h-16z" />
    <glyph glyph-name="Acircumflex" unicode="&#xc2;" horiz-adv-x="1536" 
d="M608 1495h-235l268 266h254l270 -266h-237l-152 154h-16zM246 0h-246l612 1372h312l612 -1372h-250l-158 356h-725zM678 973l-186 -418h548l-186 418l-80 194h-16z" />
    <glyph glyph-name="Atilde" unicode="&#xc3;" horiz-adv-x="1536" 
d="M584 1507h-150v82q0 185 164 185q62 0 158 -54l51 -28q58 -35 92 -35q57 0 57 69v39h148v-79q0 -87 -38.5 -137t-115.5 -50q-76 0 -162 53l-65 33q-54 35 -88 35q-51 0 -51 -64v-49zM246 0h-246l612 1372h312l612 -1372h-250l-158 356h-725zM678 973l-186 -418h548
l-186 418l-80 194h-16z" />
    <glyph glyph-name="Adieresis" unicode="&#xc4;" horiz-adv-x="1536" 
d="M1065 1495h-209v254h209v-254zM682 1495h-211v254h211v-254zM246 0h-246l612 1372h312l612 -1372h-250l-158 356h-725zM678 973l-186 -418h548l-186 418l-80 194h-16z" />
    <glyph glyph-name="Aring" unicode="&#xc5;" horiz-adv-x="1536" 
d="M246 0h-246l590 1321q-90 65 -90 184q0 107 74 171.5t194 64.5q119 0 192.5 -64.5t73.5 -171.5q0 -115 -88 -184l590 -1321h-250l-158 356h-725zM766 1403q69 0 98 24t29 78q0 52 -29 76.5t-98 24.5t-98 -24.5t-29 -76.5q0 -54 29 -78t98 -24zM678 973l-186 -418h548
l-186 418l-80 194h-16z" />
    <glyph glyph-name="AE" unicode="&#xc6;" horiz-adv-x="2320" 
d="M264 0h-272l1038 1372h1221v-198h-879v-386h848v-196h-848v-393h879v-199h-1098v356h-621zM1139 1159l-457 -604h471v604h-14z" />
    <glyph glyph-name="Ccedilla" unicode="&#xc7;" horiz-adv-x="1488" 
d="M848 -440h-182v125h182q27 0 41 9t14 34q0 26 -14 35.5t-41 9.5h-168v211q-283 28 -451 217t-168 485q0 320 194.5 513.5t514.5 193.5q193 0 341.5 -64.5t232 -186t83.5 -282.5v-29h-243v29q0 322 -412 322q-243 0 -360 -120.5t-117 -375.5t117 -374t360 -119
q412 0 412 321v27h243v-27q0 -237 -171.5 -381t-452.5 -153v-84h45q91 0 141.5 -45t50.5 -121q0 -79 -50.5 -124.5t-141.5 -45.5z" />
    <glyph glyph-name="Egrave" unicode="&#xc8;" 
d="M766 1495h-234l-337 260h311zM1200 0h-1098v1372h1098v-198h-876v-386h845v-196h-845v-393h876v-199z" />
    <glyph glyph-name="Eacute" unicode="&#xc9;" 
d="M768 1495h-233l262 260h309zM1200 0h-1098v1372h1098v-198h-876v-386h845v-196h-845v-393h876v-199z" />
    <glyph glyph-name="Ecircumflex" unicode="&#xca;" 
d="M489 1495h-235l268 266h256l269 -266h-236l-152 154h-16zM1200 0h-1098v1372h1098v-198h-876v-386h845v-196h-845v-393h876v-199z" />
    <glyph glyph-name="Edieresis" unicode="&#xcb;" 
d="M948 1495h-211v254h211v-254zM565 1495h-211v254h211v-254zM1200 0h-1098v1372h1098v-198h-876v-386h845v-196h-845v-393h876v-199z" />
    <glyph glyph-name="Igrave" unicode="&#xcc;" horiz-adv-x="425" 
d="M330 1495h-236l-336 260h310zM324 0h-222v1372h222v-1372z" />
    <glyph glyph-name="Iacute" unicode="&#xcd;" horiz-adv-x="425" 
d="M332 1495h-234l260 260h312zM324 0h-222v1372h222v-1372z" />
    <glyph glyph-name="Icircumflex" unicode="&#xce;" horiz-adv-x="425" 
d="M51 1495h-233l268 266h254l270 -266h-237l-152 154h-16zM324 0h-222v1372h222v-1372z" />
    <glyph glyph-name="Idieresis" unicode="&#xcf;" horiz-adv-x="425" 
d="M510 1495h-211v254h211v-254zM127 1495h-211v254h211v-254zM324 0h-222v1372h222v-1372z" />
    <glyph glyph-name="Eth" unicode="&#xd0;" horiz-adv-x="1611" 
d="M854 0h-625v588h-209v196h209v588h625q320 0 507 -184.5t187 -501.5t-187 -501.5t-507 -184.5zM897 588h-448v-389h405q241 0 351 113t110 374t-110 374.5t-351 113.5h-405v-390h448v-196z" />
    <glyph glyph-name="Ntilde" unicode="&#xd1;" horiz-adv-x="1462" 
d="M547 1507h-150v82q0 185 164 185q62 0 158 -54l51 -28q58 -35 92 -35q58 0 58 69v39h147v-79q0 -87 -38.5 -137t-115.5 -50q-71 0 -161 53l-66 33q-54 35 -88 35q-51 0 -51 -64v-49zM324 0h-222v1372h238l614 -803l179 -256h16l-10 248v811h221v-1372h-238l-618 801
l-172 241h-17l9 -237v-805z" />
    <glyph glyph-name="Ograve" unicode="&#xd2;" horiz-adv-x="1554" 
d="M893 1495h-234l-337 260h311zM776 -20q-323 0 -519 193t-196 513t196 513.5t519 193.5q326 0 521.5 -193t195.5 -514t-195.5 -513.5t-521.5 -192.5zM776 193q246 0 365 119t119 374t-119 375.5t-365 120.5t-363.5 -120.5t-117.5 -375.5t117.5 -374t363.5 -119z" />
    <glyph glyph-name="Oacute" unicode="&#xd3;" horiz-adv-x="1554" 
d="M895 1495h-233l262 260h309zM776 -20q-323 0 -519 193t-196 513t196 513.5t519 193.5q326 0 521.5 -193t195.5 -514t-195.5 -513.5t-521.5 -192.5zM776 193q246 0 365 119t119 374t-119 375.5t-365 120.5t-363.5 -120.5t-117.5 -375.5t117.5 -374t363.5 -119z" />
    <glyph glyph-name="Ocircumflex" unicode="&#xd4;" horiz-adv-x="1554" 
d="M616 1495h-235l268 266h256l269 -266h-236l-152 154h-16zM776 -20q-323 0 -519 193t-196 513t196 513.5t519 193.5q326 0 521.5 -193t195.5 -514t-195.5 -513.5t-521.5 -192.5zM776 193q246 0 365 119t119 374t-119 375.5t-365 120.5t-363.5 -120.5t-117.5 -375.5
t117.5 -374t363.5 -119z" />
    <glyph glyph-name="Otilde" unicode="&#xd5;" horiz-adv-x="1554" 
d="M592 1507h-150v82q0 185 164 185q62 0 158 -54l53 -28q58 -35 92 -35q56 0 56 69v39h149v-79q0 -86 -39.5 -136.5t-116.5 -50.5q-71 0 -161 53l-64 33q-58 35 -90 35q-51 0 -51 -64v-49zM776 -20q-323 0 -519 193t-196 513t196 513.5t519 193.5q326 0 521.5 -193
t195.5 -514t-195.5 -513.5t-521.5 -192.5zM776 193q246 0 365 119t119 374t-119 375.5t-365 120.5t-363.5 -120.5t-117.5 -375.5t117.5 -374t363.5 -119z" />
    <glyph glyph-name="Odieresis" unicode="&#xd6;" horiz-adv-x="1554" 
d="M1075 1495h-211v254h211v-254zM690 1495h-209v254h209v-254zM776 -20q-323 0 -519 193t-196 513t196 513.5t519 193.5q326 0 521.5 -193t195.5 -514t-195.5 -513.5t-521.5 -192.5zM776 193q246 0 365 119t119 374t-119 375.5t-365 120.5t-363.5 -120.5t-117.5 -375.5
t117.5 -374t363.5 -119z" />
    <glyph glyph-name="multiply" unicode="&#xd7;" horiz-adv-x="972" 
d="M870 438l-135 -135l-252 250l-247 -248l-132 129l250 250l-252 250l136 135l251 -250l248 248l131 -129l-250 -250z" />
    <glyph glyph-name="Oslash" unicode="&#xd8;" horiz-adv-x="1554" 
d="M776 -20q-269 0 -454 137l-156 -156l-111 115l152 153q-146 182 -146 457q0 320 196 513.5t519 193.5q265 0 453 -136l151 152l111 -115l-145 -147q147 -186 147 -461q0 -321 -195.5 -513.5t-521.5 -192.5zM295 686q0 -193 65 -303l721 725q-115 74 -305 74
q-246 0 -363.5 -120.5t-117.5 -375.5zM776 193q246 0 365 119t119 374q0 192 -68 307l-723 -727q113 -73 307 -73z" />
    <glyph glyph-name="Ugrave" unicode="&#xd9;" horiz-adv-x="1476" 
d="M854 1495h-233l-338 260h311zM737 -20q-307 0 -475 154.5t-168 434.5v803h219v-788q0 -207 99.5 -299t324.5 -92t324.5 92t99.5 299v788h221v-803q0 -280 -168.5 -434.5t-476.5 -154.5z" />
    <glyph glyph-name="Uacute" unicode="&#xda;" horiz-adv-x="1476" 
d="M856 1495h-233l260 260h311zM737 -20q-307 0 -475 154.5t-168 434.5v803h219v-788q0 -207 99.5 -299t324.5 -92t324.5 92t99.5 299v788h221v-803q0 -280 -168.5 -434.5t-476.5 -154.5z" />
    <glyph glyph-name="Ucircumflex" unicode="&#xdb;" horiz-adv-x="1476" 
d="M578 1495h-236l268 266h254l271 -266h-236l-154 154h-16zM737 -20q-307 0 -475 154.5t-168 434.5v803h219v-788q0 -207 99.5 -299t324.5 -92t324.5 92t99.5 299v788h221v-803q0 -280 -168.5 -434.5t-476.5 -154.5z" />
    <glyph glyph-name="Udieresis" unicode="&#xdc;" horiz-adv-x="1476" 
d="M1034 1495h-209v254h209v-254zM651 1495h-209v254h209v-254zM737 -20q-307 0 -475 154.5t-168 434.5v803h219v-788q0 -207 99.5 -299t324.5 -92t324.5 92t99.5 299v788h221v-803q0 -280 -168.5 -434.5t-476.5 -154.5z" />
    <glyph glyph-name="Yacute" unicode="&#xdd;" horiz-adv-x="1400" 
d="M819 1495h-233l260 260h311zM807 0h-219v473l-602 899h270l324 -487l114 -174h17l112 174l322 487h272l-610 -903v-469z" />
    <glyph glyph-name="Thorn" unicode="&#xde;" horiz-adv-x="1329" 
d="M324 0h-222v1372h222v-203h460q233 0 373.5 -128t140.5 -355q0 -225 -140.5 -353t-373.5 -128h-460v-205zM764 971h-440v-568h440q160 0 236.5 65.5t76.5 217.5t-77 218.5t-236 66.5z" />
    <glyph glyph-name="germandbls" unicode="&#xdf;" horiz-adv-x="1325" 
d="M319 0h-217v887q0 243 153.5 369t457.5 126q258 0 395 -96t137 -252q0 -127 -83.5 -207.5t-256.5 -97.5v-14q189 -15 289 -108t100 -238q0 -175 -119 -272t-352 -97h-325v199h301q149 0 211.5 49t62.5 160q0 108 -70.5 158t-214.5 50h-290v185h256q136 0 204 45t68 139
q0 63 -26.5 102.5t-100.5 63t-201 23.5q-150 0 -232 -28.5t-114.5 -88.5t-32.5 -168v-889z" />
    <glyph glyph-name="agrave" unicode="&#xe0;" horiz-adv-x="1159" 
d="M705 1147h-232l-338 266h309zM401 -20q-159 0 -251.5 70.5t-92.5 195.5q0 224 328 262l463 49v59q0 126 -60.5 177t-207.5 51q-143 0 -212 -50t-69 -161v-8h-219v8q0 177 139 291t377 114q234 0 351.5 -114t117.5 -306v-618h-203v254h-14q-40 -129 -157 -201.5
t-290 -72.5zM279 260q0 -62 43.5 -91.5t138.5 -29.5q181 0 284 71t103 216l-399 -45q-91 -11 -130.5 -37t-39.5 -84z" />
    <glyph glyph-name="aacute" unicode="&#xe1;" horiz-adv-x="1159" 
d="M702 1147h-231l262 266h309zM401 -20q-159 0 -251.5 70.5t-92.5 195.5q0 224 328 262l463 49v59q0 126 -60.5 177t-207.5 51q-143 0 -212 -50t-69 -161v-8h-219v8q0 177 139 291t377 114q234 0 351.5 -114t117.5 -306v-618h-203v254h-14q-40 -129 -157 -201.5t-290 -72.5
zM279 260q0 -62 43.5 -91.5t138.5 -29.5q181 0 284 71t103 216l-399 -45q-91 -11 -130.5 -37t-39.5 -84z" />
    <glyph glyph-name="acircumflex" unicode="&#xe2;" horiz-adv-x="1159" 
d="M426 1147h-236l269 266h256l268 -266h-235l-152 153h-16zM401 -20q-159 0 -251.5 70.5t-92.5 195.5q0 224 328 262l463 49v59q0 126 -60.5 177t-207.5 51q-143 0 -212 -50t-69 -161v-8h-219v8q0 177 139 291t377 114q234 0 351.5 -114t117.5 -306v-618h-203v254h-14
q-40 -129 -157 -201.5t-290 -72.5zM279 260q0 -62 43.5 -91.5t138.5 -29.5q181 0 284 71t103 216l-399 -45q-91 -11 -130.5 -37t-39.5 -84z" />
    <glyph glyph-name="atilde" unicode="&#xe3;" horiz-adv-x="1159" 
d="M401 1159h-149v84q0 182 164 182q63 0 157 -53l52 -29q56 -34 92 -34q57 0 57 69v39h148v-80q0 -86 -38.5 -136t-115.5 -50q-76 0 -162 53l-65 33q-58 35 -88 35q-52 0 -52 -62v-51zM401 -20q-159 0 -251.5 70.5t-92.5 195.5q0 224 328 262l463 49v59q0 126 -60.5 177
t-207.5 51q-143 0 -212 -50t-69 -161v-8h-219v8q0 177 139 291t377 114q234 0 351.5 -114t117.5 -306v-618h-203v254h-14q-40 -129 -157 -201.5t-290 -72.5zM279 260q0 -62 43.5 -91.5t138.5 -29.5q181 0 284 71t103 216l-399 -45q-91 -11 -130.5 -37t-39.5 -84z" />
    <glyph glyph-name="adieresis" unicode="&#xe4;" horiz-adv-x="1159" 
d="M885 1147h-211v254h211v-254zM502 1147h-211v254h211v-254zM401 -20q-159 0 -251.5 70.5t-92.5 195.5q0 224 328 262l463 49v59q0 126 -60.5 177t-207.5 51q-143 0 -212 -50t-69 -161v-8h-219v8q0 177 139 291t377 114q234 0 351.5 -114t117.5 -306v-618h-203v254h-14
q-40 -129 -157 -201.5t-290 -72.5zM279 260q0 -62 43.5 -91.5t138.5 -29.5q181 0 284 71t103 216l-399 -45q-91 -11 -130.5 -37t-39.5 -84z" />
    <glyph glyph-name="aring" unicode="&#xe5;" horiz-adv-x="1159" 
d="M588 1114q-94 0 -151.5 49t-57.5 131t57.5 131.5t151.5 49.5q93 0 150 -50t57 -131t-57 -130.5t-150 -49.5zM588 1210q56 0 80 20.5t24 63.5t-24 63.5t-80 20.5t-80.5 -21t-24.5 -63t24.5 -63t80.5 -21zM401 -20q-159 0 -251.5 70.5t-92.5 195.5q0 224 328 262l463 49v59
q0 126 -60.5 177t-207.5 51q-143 0 -212 -50t-69 -161v-8h-219v8q0 177 139 291t377 114q234 0 351.5 -114t117.5 -306v-618h-203v254h-14q-40 -129 -157 -201.5t-290 -72.5zM279 260q0 -62 43.5 -91.5t138.5 -29.5q181 0 284 71t103 216l-399 -45q-91 -11 -130.5 -37
t-39.5 -84z" />
    <glyph glyph-name="ae" unicode="&#xe6;" horiz-adv-x="1984" 
d="M412 -20q-166 0 -263.5 70.5t-97.5 195.5q0 118 86.5 183t243.5 81l485 51v55q0 126 -62.5 177t-215.5 51q-151 0 -222 -50t-71 -161v-15h-221v15q0 178 139.5 291.5t378.5 113.5q283 0 403 -168q73 81 180.5 124.5t239.5 43.5q240 0 385.5 -128t145.5 -355q0 -26 -9 -96
h-866q6 -152 86.5 -226.5t253.5 -74.5q303 0 303 190v17h219v-19q0 -162 -144 -264t-370 -102q-188 0 -320 75t-190 219h-12q-44 -143 -175 -218.5t-310 -75.5zM1411 864q-165 0 -247 -71t-91 -211h664v4q0 278 -326 278zM272 260q0 -121 193 -121q385 0 405 283v4l-428 -45
q-87 -10 -128.5 -37t-41.5 -84z" />
    <glyph glyph-name="ccedilla" unicode="&#xe7;" horiz-adv-x="1206" 
d="M733 -440h-180v125h182q56 0 56 43q0 45 -56 45h-170v209q-230 15 -367 159t-137 367q0 238 152 384t403 146q231 0 380 -118.5t149 -307.5v-20h-219v12q0 117 -81.5 176.5t-232.5 59.5q-170 0 -250.5 -81.5t-80.5 -250.5q0 -166 80.5 -248t250.5 -82q151 0 232.5 59.5
t81.5 176.5v14h219v-22q0 -173 -126.5 -288t-328.5 -134v-88h43q92 0 142.5 -45t50.5 -121q0 -79 -50 -124.5t-143 -45.5z" />
    <glyph glyph-name="egrave" unicode="&#xe8;" horiz-adv-x="1204" 
d="M719 1147h-232l-337 266h309zM614 -20q-255 0 -404 138.5t-149 389.5q0 238 150.5 384t398.5 146q241 0 386 -127.5t145 -355.5q0 -55 -8 -96h-865q6 -152 86.5 -226.5t253.5 -74.5q301 0 301 190v17h221v-19q0 -162 -144 -264t-372 -102zM606 864q-165 0 -246 -71
t-90 -211h662v4q0 278 -326 278z" />
    <glyph glyph-name="eacute" unicode="&#xe9;" horiz-adv-x="1204" 
d="M717 1147h-232l263 266h309zM614 -20q-255 0 -404 138.5t-149 389.5q0 238 150.5 384t398.5 146q241 0 386 -127.5t145 -355.5q0 -55 -8 -96h-865q6 -152 86.5 -226.5t253.5 -74.5q301 0 301 190v17h221v-19q0 -162 -144 -264t-372 -102zM606 864q-165 0 -246 -71
t-90 -211h662v4q0 278 -326 278z" />
    <glyph glyph-name="ecircumflex" unicode="&#xea;" horiz-adv-x="1204" 
d="M440 1147h-235l268 266h256l268 -266h-235l-152 153h-16zM614 -20q-255 0 -404 138.5t-149 389.5q0 238 150.5 384t398.5 146q241 0 386 -127.5t145 -355.5q0 -55 -8 -96h-865q6 -152 86.5 -226.5t253.5 -74.5q301 0 301 190v17h221v-19q0 -162 -144 -264t-372 -102z
M606 864q-165 0 -246 -71t-90 -211h662v4q0 278 -326 278z" />
    <glyph glyph-name="edieresis" unicode="&#xeb;" horiz-adv-x="1204" 
d="M899 1147h-211v254h211v-254zM516 1147h-211v254h211v-254zM614 -20q-255 0 -404 138.5t-149 389.5q0 238 150.5 384t398.5 146q241 0 386 -127.5t145 -355.5q0 -55 -8 -96h-865q6 -152 86.5 -226.5t253.5 -74.5q301 0 301 190v17h221v-19q0 -162 -144 -264t-372 -102z
M606 864q-165 0 -246 -71t-90 -211h662v4q0 278 -326 278z" />
    <glyph glyph-name="igrave" unicode="&#xec;" horiz-adv-x="436" 
d="M338 1147h-234l-337 266h309zM328 0h-219v1024h219v-1024z" />
    <glyph glyph-name="iacute" unicode="&#xed;" horiz-adv-x="436" 
d="M334 1147h-232l263 266h309zM328 0h-219v1024h219v-1024z" />
    <glyph glyph-name="icircumflex" unicode="&#xee;" horiz-adv-x="436" 
d="M57 1147h-235l268 266h256l268 -266h-235l-152 153h-16zM328 0h-219v1024h219v-1024z" />
    <glyph glyph-name="idieresis" unicode="&#xef;" horiz-adv-x="436" 
d="M516 1147h-211v254h211v-254zM133 1147h-211v254h211v-254zM328 0h-219v1024h219v-1024z" />
    <glyph glyph-name="eth" unicode="&#xf0;" horiz-adv-x="1302" 
d="M598 -20q-283 0 -435.5 123t-152.5 337q0 205 139 317.5t383 112.5q190 0 306.5 -71.5t156.5 -194.5h17q-8 237 -252 477l-393 -86l-25 111l315 70q-113 95 -276 196h297q121 -66 217 -145l326 71l22 -110l-250 -55q252 -263 252 -580q0 -269 -160.5 -421t-486.5 -152z
M608 193q203 0 294 59.5t91 189.5q0 124 -94 184t-291 60q-196 0 -284 -59.5t-88 -186.5q0 -130 87.5 -188.5t284.5 -58.5z" />
    <glyph glyph-name="ntilde" unicode="&#xf1;" horiz-adv-x="1259" 
d="M449 1159h-150v84q0 182 164 182q64 0 158 -53l51 -29q56 -34 92 -34q57 0 57 69v39h148v-80q0 -86 -39 -136t-115 -50t-162 53l-65 33q-58 35 -88 35q-51 0 -51 -62v-51zM324 0h-222v1018h203v-316h14q26 142 134.5 239t289.5 97q137 0 234 -58t142.5 -152.5
t45.5 -215.5v-612h-221v553q0 145 -70.5 216t-226.5 71q-165 0 -244 -84t-79 -252v-504z" />
    <glyph glyph-name="ograve" unicode="&#xf2;" horiz-adv-x="1247" 
d="M741 1147h-231l-338 266h309zM623 -20q-253 0 -409.5 146.5t-156.5 381.5q0 238 156 384t410 146q255 0 411 -146t156 -384q0 -235 -156.5 -381.5t-410.5 -146.5zM623 176q182 0 266 83.5t84 248.5q0 167 -84 251.5t-266 84.5q-181 0 -265 -84.5t-84 -251.5
q0 -165 84 -248.5t265 -83.5z" />
    <glyph glyph-name="oacute" unicode="&#xf3;" horiz-adv-x="1247" 
d="M739 1147h-233l262 266h309zM623 -20q-253 0 -409.5 146.5t-156.5 381.5q0 238 156 384t410 146q255 0 411 -146t156 -384q0 -235 -156.5 -381.5t-410.5 -146.5zM623 176q182 0 266 83.5t84 248.5q0 167 -84 251.5t-266 84.5q-181 0 -265 -84.5t-84 -251.5
q0 -165 84 -248.5t265 -83.5z" />
    <glyph glyph-name="ocircumflex" unicode="&#xf4;" horiz-adv-x="1247" 
d="M463 1147h-236l269 266h254l270 -266h-236l-153 153h-17zM623 -20q-253 0 -409.5 146.5t-156.5 381.5q0 238 156 384t410 146q255 0 411 -146t156 -384q0 -235 -156.5 -381.5t-410.5 -146.5zM623 176q182 0 266 83.5t84 248.5q0 167 -84 251.5t-266 84.5
q-181 0 -265 -84.5t-84 -251.5q0 -165 84 -248.5t265 -83.5z" />
    <glyph glyph-name="otilde" unicode="&#xf5;" horiz-adv-x="1247" 
d="M436 1159h-149v84q0 182 166 182q60 0 157 -53l52 -29q56 -34 92 -34q57 0 57 69v39h147v-80q0 -86 -39 -136t-116 -50q-72 0 -162 53l-63 33q-58 35 -89 35q-53 0 -53 -62v-51zM623 -20q-253 0 -409.5 146.5t-156.5 381.5q0 238 156 384t410 146q255 0 411 -146
t156 -384q0 -235 -156.5 -381.5t-410.5 -146.5zM623 176q182 0 266 83.5t84 248.5q0 167 -84 251.5t-266 84.5q-181 0 -265 -84.5t-84 -251.5q0 -165 84 -248.5t265 -83.5z" />
    <glyph glyph-name="odieresis" unicode="&#xf6;" horiz-adv-x="1247" 
d="M920 1147h-209v254h209v-254zM537 1147h-209v254h209v-254zM623 -20q-253 0 -409.5 146.5t-156.5 381.5q0 238 156 384t410 146q255 0 411 -146t156 -384q0 -235 -156.5 -381.5t-410.5 -146.5zM623 176q182 0 266 83.5t84 248.5q0 167 -84 251.5t-266 84.5
q-181 0 -265 -84.5t-84 -251.5q0 -165 84 -248.5t265 -83.5z" />
    <glyph glyph-name="divide" unicode="&#xf7;" horiz-adv-x="1015" 
d="M631 936h-236v293h236v-293zM938 594h-852v184h852v-184zM631 143h-236v293h236v-293z" />
    <glyph glyph-name="oslash" unicode="&#xf8;" horiz-adv-x="1247" 
d="M623 -20q-213 0 -355 102l-123 -119l-88 92l117 113q-117 139 -117 340q0 238 156 384t410 146q199 0 346 -94l112 109l86 -92l-102 -101q125 -141 125 -352q0 -235 -156.5 -381.5t-410.5 -146.5zM274 508q0 -122 45 -199l506 494q-77 41 -202 41q-181 0 -265 -84.5
t-84 -251.5zM623 176q182 0 266 83.5t84 248.5q0 133 -51 213l-512 -500q77 -45 213 -45z" />
    <glyph glyph-name="ugrave" unicode="&#xf9;" 
d="M754 1147h-232l-340 266h310zM526 -20q-206 0 -316 119.5t-110 306.5v612h219v-553q0 -145 72.5 -216t231.5 -71q329 0 329 336v504h219v-1018h-202v315h-13q-13 -67 -45 -125.5t-83.5 -106t-129 -75.5t-172.5 -28z" />
    <glyph glyph-name="uacute" unicode="&#xfa;" 
d="M752 1147h-234l262 266h310zM526 -20q-206 0 -316 119.5t-110 306.5v612h219v-553q0 -145 72.5 -216t231.5 -71q329 0 329 336v504h219v-1018h-202v315h-13q-13 -67 -45 -125.5t-83.5 -106t-129 -75.5t-172.5 -28z" />
    <glyph glyph-name="ucircumflex" unicode="&#xfb;" 
d="M475 1147h-235l268 266h254l270 -266h-237l-152 153h-16zM526 -20q-206 0 -316 119.5t-110 306.5v612h219v-553q0 -145 72.5 -216t231.5 -71q329 0 329 336v504h219v-1018h-202v315h-13q-13 -67 -45 -125.5t-83.5 -106t-129 -75.5t-172.5 -28z" />
    <glyph glyph-name="udieresis" unicode="&#xfc;" 
d="M932 1147h-211v254h211v-254zM549 1147h-211v254h211v-254zM526 -20q-206 0 -316 119.5t-110 306.5v612h219v-553q0 -145 72.5 -216t231.5 -71q329 0 329 336v504h219v-1018h-202v315h-13q-13 -67 -45 -125.5t-83.5 -106t-129 -75.5t-172.5 -28z" />
    <glyph glyph-name="yacute" unicode="&#xfd;" horiz-adv-x="1210" 
d="M719 1147h-234l263 266h309zM266 -348h-145v201h198q67 0 101 20.5t57 73.5l25 53l-502 1018h248l260 -541l100 -244h17l96 246l240 539h243l-530 -1129q-62 -133 -154.5 -185t-253.5 -52z" />
    <glyph glyph-name="thorn" unicode="&#xfe;" horiz-adv-x="1282" 
d="M313 -348h-221v1720h221v-641h9q31 142 142 224.5t281 82.5q231 0 358.5 -144t127.5 -386q0 -241 -127.5 -384.5t-358.5 -143.5q-170 0 -281 82.5t-142 224.5h-9v-635zM313 492q0 -154 94 -233t263 -79t254.5 76t85.5 252q0 178 -85.5 254t-254.5 76t-263 -79.5
t-94 -234.5v-32z" />
    <glyph glyph-name="ydieresis" unicode="&#xff;" horiz-adv-x="1210" 
d="M899 1147h-211v254h211v-254zM516 1147h-211v254h211v-254zM266 -348h-145v201h198q67 0 101 20.5t57 73.5l25 53l-502 1018h248l260 -541l100 -244h17l96 246l240 539h243l-530 -1129q-62 -133 -154.5 -185t-253.5 -52z" />
    <glyph glyph-name="Amacron" unicode="&#x100;" horiz-adv-x="1536" 
d="M1071 1552h-606v158h606v-158zM246 0h-246l612 1372h312l612 -1372h-250l-158 356h-725zM678 973l-186 -418h548l-186 418l-80 194h-16z" />
    <glyph glyph-name="amacron" unicode="&#x101;" horiz-adv-x="1159" 
d="M891 1202h-608v158h608v-158zM401 -20q-159 0 -251.5 70.5t-92.5 195.5q0 224 328 262l463 49v59q0 126 -60.5 177t-207.5 51q-143 0 -212 -50t-69 -161v-8h-219v8q0 177 139 291t377 114q234 0 351.5 -114t117.5 -306v-618h-203v254h-14q-40 -129 -157 -201.5
t-290 -72.5zM279 260q0 -62 43.5 -91.5t138.5 -29.5q181 0 284 71t103 216l-399 -45q-91 -11 -130.5 -37t-39.5 -84z" />
    <glyph glyph-name="Abreve" unicode="&#x102;" horiz-adv-x="1536" 
d="M768 1475q-132 0 -213.5 67.5t-81.5 177.5v23h160v-21q0 -56 30.5 -82t104.5 -26q77 0 107 26t30 82v21h160v-23q0 -110 -82.5 -177.5t-214.5 -67.5zM246 0h-246l612 1372h312l612 -1372h-250l-158 356h-725zM678 973l-186 -418h548l-186 418l-80 194h-16z" />
    <glyph glyph-name="abreve" unicode="&#x103;" horiz-adv-x="1159" 
d="M588 1126q-132 0 -214.5 68t-82.5 178v35h160v-33q0 -58 31 -84t106 -26q77 0 106 25.5t29 84.5v33h160v-35q0 -110 -81.5 -178t-213.5 -68zM401 -20q-159 0 -251.5 70.5t-92.5 195.5q0 224 328 262l463 49v59q0 126 -60.5 177t-207.5 51q-143 0 -212 -50t-69 -161v-8
h-219v8q0 177 139 291t377 114q234 0 351.5 -114t117.5 -306v-618h-203v254h-14q-40 -129 -157 -201.5t-290 -72.5zM279 260q0 -62 43.5 -91.5t138.5 -29.5q181 0 284 71t103 216l-399 -45q-91 -11 -130.5 -37t-39.5 -84z" />
    <glyph glyph-name="Aogonek" unicode="&#x104;" horiz-adv-x="1536" 
d="M246 0h-246l612 1372h312l612 -1372l-88 -111q-39 -51 -39 -82q0 -51 68 -51h120v-139h-163q-197 0 -197 141q0 26 6.5 49t24.5 49t27 37t36 41l60 66h-105l-158 356h-725zM678 973l-186 -418h548l-186 418l-80 194h-16z" />
    <glyph glyph-name="aogonek" unicode="&#x105;" horiz-adv-x="1159" 
d="M401 -20q-159 0 -251.5 70.5t-92.5 195.5q0 224 328 262l463 49v59q0 126 -60.5 177t-207.5 51q-143 0 -212 -50t-69 -161v-8h-219v8q0 177 139 291t377 114q234 0 351.5 -114t117.5 -306v-618l-88 -111q-41 -50 -41 -82q0 -51 68 -51h120v-139h-163q-98 0 -147.5 37
t-49.5 104q0 26 6.5 49t24.5 49t27 37t36 41l60 66h-56v254h-14q-40 -129 -157 -201.5t-290 -72.5zM279 260q0 -62 43.5 -91.5t138.5 -29.5q181 0 284 71t103 216l-399 -45q-91 -11 -130.5 -37t-39.5 -84z" />
    <glyph glyph-name="Cacute" unicode="&#x106;" horiz-adv-x="1488" 
d="M862 1495h-233l260 260h311zM770 -20q-320 0 -514.5 193t-194.5 513t194.5 513.5t514.5 193.5q193 0 341.5 -64.5t232 -186t83.5 -282.5v-29h-243v29q0 322 -412 322q-243 0 -360 -120.5t-117 -375.5t117 -374t360 -119q412 0 412 321v27h243v-27q0 -245 -181 -389.5
t-476 -144.5z" />
    <glyph glyph-name="cacute" unicode="&#x107;" horiz-adv-x="1206" 
d="M743 1147h-233l262 266h309zM616 -20q-251 0 -403 146t-152 382q0 238 152 384t403 146q231 0 380 -118.5t149 -307.5v-20h-219v12q0 117 -81.5 176.5t-232.5 59.5q-170 0 -250.5 -81.5t-80.5 -250.5q0 -166 80.5 -248t250.5 -82q151 0 232.5 59.5t81.5 176.5v14h219v-22
q0 -189 -149 -307.5t-380 -118.5z" />
    <glyph glyph-name="Ccircumflex" unicode="&#x108;" horiz-adv-x="1488" 
d="M584 1495h-236l268 266h256l269 -266h-236l-151 154h-17zM770 -20q-320 0 -514.5 193t-194.5 513t194.5 513.5t514.5 193.5q193 0 341.5 -64.5t232 -186t83.5 -282.5v-29h-243v29q0 322 -412 322q-243 0 -360 -120.5t-117 -375.5t117 -374t360 -119q412 0 412 321v27h243
v-27q0 -245 -181 -389.5t-476 -144.5z" />
    <glyph glyph-name="ccircumflex" unicode="&#x109;" horiz-adv-x="1206" 
d="M465 1147h-234l267 266h256l268 -266h-236l-151 153h-17zM616 -20q-251 0 -403 146t-152 382q0 238 152 384t403 146q231 0 380 -118.5t149 -307.5v-20h-219v12q0 117 -81.5 176.5t-232.5 59.5q-170 0 -250.5 -81.5t-80.5 -250.5q0 -166 80.5 -248t250.5 -82
q151 0 232.5 59.5t81.5 176.5v14h219v-22q0 -189 -149 -307.5t-380 -118.5z" />
    <glyph glyph-name="Cdotaccent" unicode="&#x10a;" horiz-adv-x="1488" 
d="M854 1495h-219v254h219v-254zM770 -20q-320 0 -514.5 193t-194.5 513t194.5 513.5t514.5 193.5q193 0 341.5 -64.5t232 -186t83.5 -282.5v-29h-243v29q0 322 -412 322q-243 0 -360 -120.5t-117 -375.5t117 -374t360 -119q412 0 412 321v27h243v-27q0 -245 -181 -389.5
t-476 -144.5z" />
    <glyph glyph-name="cdotaccent" unicode="&#x10b;" horiz-adv-x="1206" 
d="M737 1147h-221v254h221v-254zM616 -20q-251 0 -403 146t-152 382q0 238 152 384t403 146q231 0 380 -118.5t149 -307.5v-20h-219v12q0 117 -81.5 176.5t-232.5 59.5q-170 0 -250.5 -81.5t-80.5 -250.5q0 -166 80.5 -248t250.5 -82q151 0 232.5 59.5t81.5 176.5v14h219
v-22q0 -189 -149 -307.5t-380 -118.5z" />
    <glyph glyph-name="Ccaron" unicode="&#x10c;" horiz-adv-x="1488" 
d="M905 1761h236l-269 -266h-254l-270 266h236l153 -153h17zM770 -20q-320 0 -514.5 193t-194.5 513t194.5 513.5t514.5 193.5q193 0 341.5 -64.5t232 -186t83.5 -282.5v-29h-243v29q0 322 -412 322q-243 0 -360 -120.5t-117 -375.5t117 -374t360 -119q412 0 412 321v27h243
v-27q0 -245 -181 -389.5t-476 -144.5z" />
    <glyph glyph-name="ccaron" unicode="&#x10d;" horiz-adv-x="1206" 
d="M754 1147h-256l-267 266h242l145 -153h17l145 153h242zM616 -20q-251 0 -403 146t-152 382q0 238 152 384t403 146q231 0 380 -118.5t149 -307.5v-20h-219v12q0 117 -81.5 176.5t-232.5 59.5q-170 0 -250.5 -81.5t-80.5 -250.5q0 -166 80.5 -248t250.5 -82
q151 0 232.5 59.5t81.5 176.5v14h219v-22q0 -189 -149 -307.5t-380 -118.5z" />
    <glyph glyph-name="Dcaron" unicode="&#x10e;" horiz-adv-x="1495" 
d="M934 1761h235l-268 -266h-254l-270 266h237l152 -153h16zM739 0h-624v1372h624q320 0 507.5 -184.5t187.5 -501.5t-187.5 -501.5t-507.5 -184.5zM739 1174h-405v-975h405q241 0 351 113t110 374t-110 374.5t-351 113.5z" />
    <glyph glyph-name="dcaron" unicode="&#x10f;" horiz-adv-x="1456" 
d="M551 -20q-237 0 -368.5 144t-131.5 384q0 241 129 385.5t357 144.5q174 0 280.5 -80.5t138.5 -216.5h13v631h221v-1372h-203v293h-14q-32 -152 -141 -232.5t-281 -80.5zM1333 928h-55v110h51q23 0 32 8t9 33v37h-94v256h213v-289q0 -155 -156 -155zM274 508
q0 -176 86 -251t258 -75q166 0 258.5 79.5t92.5 236.5v16q0 161 -91.5 242.5t-263.5 81.5q-168 0 -254 -76.5t-86 -253.5z" />
    <glyph glyph-name="Dcroat" unicode="&#x110;" horiz-adv-x="1611" 
d="M854 0h-625v588h-209v196h209v588h625q320 0 507 -184.5t187 -501.5t-187 -501.5t-507 -184.5zM897 588h-448v-389h405q241 0 351 113t110 374t-110 374.5t-351 113.5h-405v-390h448v-196z" />
    <glyph glyph-name="dcroat" unicode="&#x111;" horiz-adv-x="1355" 
d="M545 -20q-234 0 -364 132.5t-130 354.5q0 223 127 356t354 133q171 0 281.5 -80.5t142.5 -211.5h13v393h-404v170h404v145h221v-145h160v-170h-160v-1057h-203v287h-14q-31 -144 -143.5 -225.5t-284.5 -81.5zM274 467q0 -154 84.5 -219.5t253.5 -65.5t263 69.5t94 205.5
v16q0 134 -94 208.5t-265 74.5q-166 0 -251 -67t-85 -222z" />
    <glyph glyph-name="Emacron" unicode="&#x112;" 
d="M954 1552h-608v158h608v-158zM1200 0h-1098v1372h1098v-198h-876v-386h845v-196h-845v-393h876v-199z" />
    <glyph glyph-name="emacron" unicode="&#x113;" horiz-adv-x="1204" 
d="M905 1202h-608v158h608v-158zM614 -20q-255 0 -404 138.5t-149 389.5q0 238 150.5 384t398.5 146q241 0 386 -127.5t145 -355.5q0 -55 -8 -96h-865q6 -152 86.5 -226.5t253.5 -74.5q301 0 301 190v17h221v-19q0 -162 -144 -264t-372 -102zM606 864q-165 0 -246 -71
t-90 -211h662v4q0 278 -326 278z" />
    <glyph glyph-name="Ebreve" unicode="&#x114;" 
d="M651 1475q-132 0 -214.5 67.5t-82.5 177.5v23h160v-21q0 -56 31 -82t106 -26q77 0 106 25.5t29 82.5v21h160v-23q0 -110 -81.5 -177.5t-213.5 -67.5zM1200 0h-1098v1372h1098v-198h-876v-386h845v-196h-845v-393h876v-199z" />
    <glyph glyph-name="ebreve" unicode="&#x115;" horiz-adv-x="1204" 
d="M602 1126q-132 0 -214.5 68t-82.5 178v35h160v-33q0 -58 31 -84t106 -26q76 0 105.5 25.5t29.5 84.5v33h160v-35q0 -110 -81.5 -178t-213.5 -68zM614 -20q-255 0 -404 138.5t-149 389.5q0 238 150.5 384t398.5 146q241 0 386 -127.5t145 -355.5q0 -55 -8 -96h-865
q6 -152 86.5 -226.5t253.5 -74.5q301 0 301 190v17h221v-19q0 -162 -144 -264t-372 -102zM606 864q-165 0 -246 -71t-90 -211h662v4q0 278 -326 278z" />
    <glyph glyph-name="Edotaccent" unicode="&#x116;" 
d="M762 1495h-221v254h221v-254zM1200 0h-1098v1372h1098v-198h-876v-386h845v-196h-845v-393h876v-199z" />
    <glyph glyph-name="edotaccent" unicode="&#x117;" horiz-adv-x="1204" 
d="M711 1147h-219v254h219v-254zM614 -20q-255 0 -404 138.5t-149 389.5q0 238 150.5 384t398.5 146q241 0 386 -127.5t145 -355.5q0 -55 -8 -96h-865q6 -152 86.5 -226.5t253.5 -74.5q301 0 301 190v17h221v-19q0 -162 -144 -264t-372 -102zM606 864q-165 0 -246 -71
t-90 -211h662v4q0 278 -326 278z" />
    <glyph glyph-name="Eogonek" unicode="&#x118;" 
d="M1169 592h-845v-393h876v-199l-88 -111q-39 -51 -39 -82q0 -51 68 -51h121v-139h-164q-197 0 -197 141q0 26 6.5 49t24.5 49t27 37t36 41l60 66h-953v1372h1098v-198h-876v-386h845v-196z" />
    <glyph glyph-name="eogonek" unicode="&#x119;" horiz-adv-x="1204" 
d="M823 -383h-164q-196 0 -196 141q0 26 6.5 49t24.5 49t27 37t36 41l41 46q-247 5 -392 143t-145 385q0 238 150.5 384t398.5 146q241 0 386 -127.5t145 -355.5q0 -55 -8 -96h-865q6 -152 86.5 -226.5t253.5 -74.5q301 0 301 190v17h221v-19q0 -135 -101.5 -229.5
t-272.5 -124.5l-82 -103q-39 -51 -39 -82q0 -51 67 -51h121v-139zM606 864q-165 0 -246 -71t-90 -211h662v4q0 278 -326 278z" />
    <glyph glyph-name="Ecaron" unicode="&#x11a;" 
d="M811 1761h236l-269 -266h-254l-270 266h238l151 -153h16zM1200 0h-1098v1372h1098v-198h-876v-386h845v-196h-845v-393h876v-199z" />
    <glyph glyph-name="ecaron" unicode="&#x11b;" horiz-adv-x="1204" 
d="M729 1147h-256l-268 266h244l145 -153h16l144 153h243zM614 -20q-255 0 -404 138.5t-149 389.5q0 238 150.5 384t398.5 146q241 0 386 -127.5t145 -355.5q0 -55 -8 -96h-865q6 -152 86.5 -226.5t253.5 -74.5q301 0 301 190v17h221v-19q0 -162 -144 -264t-372 -102z
M606 864q-165 0 -246 -71t-90 -211h662v4q0 278 -326 278z" />
    <glyph glyph-name="Gcircumflex" unicode="&#x11c;" horiz-adv-x="1531" 
d="M625 1495h-234l268 266h254l271 -266h-238l-151 154h-17zM733 -20q-303 0 -487.5 193t-184.5 513q0 321 199 514t528 193q295 0 477.5 -139.5t182.5 -374.5v-17h-244v17q0 303 -422 303q-249 0 -368 -120.5t-119 -375.5t117 -374t360 -119q246 0 351.5 74t105.5 247v18
h-508v168h727v-700h-201v297h-14q-43 -152 -171.5 -234.5t-328.5 -82.5z" />
    <glyph glyph-name="gcircumflex" unicode="&#x11d;" horiz-adv-x="1286" 
d="M469 1147h-236l269 266h256l268 -266h-235l-152 153h-16zM545 92q-225 0 -354.5 129t-129.5 344q0 214 134 343.5t364 129.5q163 0 273 -71.5t137 -202.5h12v254h203v-899q0 -249 -143.5 -368.5t-403.5 -119.5q-230 0 -370 103t-140 284h219q0 -110 70 -156t233 -46
q177 0 246.5 61.5t69.5 228.5v250h-15q-29 -120 -133 -192t-272 -72zM285 565q0 -151 83.5 -216.5t247.5 -65.5q170 0 259.5 70t89.5 204v29q0 127 -89.5 193.5t-252.5 66.5q-167 0 -252.5 -65t-85.5 -216z" />
    <glyph glyph-name="Gbreve" unicode="&#x11e;" horiz-adv-x="1531" 
d="M786 1475q-132 0 -213 67.5t-81 177.5v23h159v-21q0 -56 30.5 -82t104.5 -26q77 0 106.5 26t29.5 82v21h159v-23q0 -110 -81.5 -177.5t-213.5 -67.5zM733 -20q-303 0 -487.5 193t-184.5 513q0 321 199 514t528 193q295 0 477.5 -139.5t182.5 -374.5v-17h-244v17
q0 303 -422 303q-249 0 -368 -120.5t-119 -375.5t117 -374t360 -119q246 0 351.5 74t105.5 247v18h-508v168h727v-700h-201v297h-14q-43 -152 -171.5 -234.5t-328.5 -82.5z" />
    <glyph glyph-name="gbreve" unicode="&#x11f;" horiz-adv-x="1286" 
d="M631 1126q-132 0 -214.5 68t-82.5 178v35h160v-33q0 -59 30.5 -84.5t106.5 -25.5t105.5 25.5t29.5 84.5v33h160v-35q0 -110 -81.5 -178t-213.5 -68zM545 92q-225 0 -354.5 129t-129.5 344q0 214 134 343.5t364 129.5q163 0 273 -71.5t137 -202.5h12v254h203v-899
q0 -249 -143.5 -368.5t-403.5 -119.5q-230 0 -370 103t-140 284h219q0 -110 70 -156t233 -46q177 0 246.5 61.5t69.5 228.5v250h-15q-29 -120 -133 -192t-272 -72zM285 565q0 -151 83.5 -216.5t247.5 -65.5q170 0 259.5 70t89.5 204v29q0 127 -89.5 193.5t-252.5 66.5
q-167 0 -252.5 -65t-85.5 -216z" />
    <glyph glyph-name="Gdotaccent" unicode="&#x120;" horiz-adv-x="1531" 
d="M897 1495h-221v254h221v-254zM733 -20q-303 0 -487.5 193t-184.5 513q0 321 199 514t528 193q295 0 477.5 -139.5t182.5 -374.5v-17h-244v17q0 303 -422 303q-249 0 -368 -120.5t-119 -375.5t117 -374t360 -119q246 0 351.5 74t105.5 247v18h-508v168h727v-700h-201v297
h-14q-43 -152 -171.5 -234.5t-328.5 -82.5z" />
    <glyph glyph-name="gdotaccent" unicode="&#x121;" horiz-adv-x="1286" 
d="M739 1147h-219v254h219v-254zM545 92q-225 0 -354.5 129t-129.5 344q0 214 134 343.5t364 129.5q163 0 273 -71.5t137 -202.5h12v254h203v-899q0 -249 -143.5 -368.5t-403.5 -119.5q-230 0 -370 103t-140 284h219q0 -110 70 -156t233 -46q177 0 246.5 61.5t69.5 228.5
v250h-15q-29 -120 -133 -192t-272 -72zM285 565q0 -151 83.5 -216.5t247.5 -65.5q170 0 259.5 70t89.5 204v29q0 127 -89.5 193.5t-252.5 66.5q-167 0 -252.5 -65t-85.5 -216z" />
    <glyph glyph-name="Gcommaaccent" unicode="&#x122;" horiz-adv-x="1531" 
d="M733 -20q-303 0 -487.5 193t-184.5 513q0 321 199 514t528 193q295 0 477.5 -139.5t182.5 -374.5v-17h-244v17q0 303 -422 303q-249 0 -368 -120.5t-119 -375.5t117 -374t360 -119q246 0 351.5 74t105.5 247v18h-508v168h727v-700h-201v297h-14q-43 -152 -171.5 -234.5
t-328.5 -82.5zM657 -410h-243l196 267h305z" />
    <glyph glyph-name="gcommaaccent" unicode="&#x123;" horiz-adv-x="1286" 
d="M684 1413h215l-178 -266h-277zM545 92q-225 0 -354.5 129t-129.5 344q0 214 134 343.5t364 129.5q163 0 273 -71.5t137 -202.5h12v254h203v-899q0 -249 -143.5 -368.5t-403.5 -119.5q-230 0 -370 103t-140 284h219q0 -110 70 -156t233 -46q177 0 246.5 61.5t69.5 228.5
v250h-15q-29 -120 -133 -192t-272 -72zM285 565q0 -151 83.5 -216.5t247.5 -65.5q170 0 259.5 70t89.5 204v29q0 127 -89.5 193.5t-252.5 66.5q-167 0 -252.5 -65t-85.5 -216z" />
    <glyph glyph-name="Hcircumflex" unicode="&#x124;" horiz-adv-x="1454" 
d="M565 1495h-233l268 266h254l270 -266h-237l-152 154h-16zM324 0h-222v1372h222v-581h806v581h220v-1372h-220v592h-806v-592z" />
    <glyph glyph-name="hcircumflex" unicode="&#x125;" 
d="M49 1495h-233l268 266h254l270 -266h-237l-152 154h-16zM324 0h-222v1372h222v-665h12q14 67 44.5 124.5t80.5 105t125.5 74.5t169.5 27q204 0 311 -119t107 -313v-606h-220v553q0 153 -72 220t-231 67q-174 0 -250.5 -88.5t-76.5 -257.5v-494z" />
    <glyph glyph-name="Hbar" unicode="&#x126;" horiz-adv-x="1454" 
d="M324 0h-222v1006h-174v198h174v168h222v-168h806v168h220v-168h176v-198h-176v-1006h-220v592h-806v-592zM324 791h806v215h-806v-215z" />
    <glyph glyph-name="hbar" unicode="&#x127;" horiz-adv-x="1302" 
d="M367 0h-222v1057h-155v170h155v145h222v-145h407v-170h-407v-453h12q29 143 135 237.5t289 94.5q202 0 308 -119t106 -313v-504h-220v451q0 153 -70.5 219.5t-228.5 66.5q-177 0 -254 -88.5t-77 -259.5v-389z" />
    <glyph glyph-name="Itilde" unicode="&#x128;" horiz-adv-x="425" 
d="M27 1507h-150v82q0 185 164 185q61 0 160 -54l51 -28q58 -35 92 -35q57 0 57 69v39h148v-79q0 -86 -39 -136.5t-115 -50.5q-74 0 -164 53l-63 33q-54 35 -88 35q-53 0 -53 -64v-49zM324 0h-222v1372h222v-1372z" />
    <glyph glyph-name="itilde" unicode="&#x129;" horiz-adv-x="436" 
d="M33 1159h-150v84q0 182 164 182q64 0 158 -53l51 -29q56 -34 92 -34q58 0 58 69v39h149v-80q0 -86 -39.5 -136t-116.5 -50q-71 0 -161 53l-66 33q-58 35 -88 35q-51 0 -51 -62v-51zM328 0h-219v1024h219v-1024z" />
    <glyph glyph-name="Imacron" unicode="&#x12a;" horiz-adv-x="425" 
d="M516 1552h-606v158h606v-158zM324 0h-222v1372h222v-1372z" />
    <glyph glyph-name="imacron" unicode="&#x12b;" horiz-adv-x="436" 
d="M522 1202h-608v158h608v-158zM328 0h-219v1024h219v-1024z" />
    <glyph glyph-name="Ibreve" unicode="&#x12c;" horiz-adv-x="425" 
d="M213 1475q-132 0 -213.5 67.5t-81.5 177.5v23h160v-21q0 -56 30.5 -82t104.5 -26q77 0 107 26t30 82v21h158v-23q0 -110 -81.5 -177.5t-213.5 -67.5zM324 0h-222v1372h222v-1372z" />
    <glyph glyph-name="ibreve" unicode="&#x12d;" horiz-adv-x="436" 
d="M219 1126q-132 0 -214.5 68t-82.5 178v35h160v-33q0 -58 31 -84t106 -26q77 0 106 25.5t29 84.5v33h160v-35q0 -110 -81.5 -178t-213.5 -68zM328 0h-219v1024h219v-1024z" />
    <glyph glyph-name="Iogonek" unicode="&#x12e;" horiz-adv-x="425" 
d="M385 -383h-166q-98 0 -147 37t-49 104q0 26 6.5 49t24.5 49t27 37t36 41l59 66h-74v1372h222v-1372l-88 -111q-41 -50 -41 -82q0 -51 69 -51h121v-139z" />
    <glyph glyph-name="iogonek" unicode="&#x12f;" horiz-adv-x="425" 
d="M324 1137h-222v235h222v-235zM385 -383h-166q-98 0 -147 37t-49 104q0 26 6.5 49t24.5 49t27 37t36 41l59 66h-74v1018h222v-1018l-88 -111q-41 -50 -41 -82q0 -51 69 -51h121v-139z" />
    <glyph glyph-name="Idotaccent" unicode="&#x130;" horiz-adv-x="425" 
d="M324 1495h-222v254h222v-254zM324 0h-222v1372h222v-1372z" />
    <glyph glyph-name="dotlessi" unicode="&#x131;" horiz-adv-x="436" 
d="M328 0h-219v1024h219v-1024z" />
    <glyph glyph-name="IJ" unicode="&#x132;" horiz-adv-x="1718" 
d="M324 0h-222v1372h222v-1372zM1044 -20q-299 0 -438 143t-139 399v64h233v-66q0 -175 74.5 -251t269.5 -76t272 74.5t77 242.5v862h231v-860q0 -121 -32 -216.5t-100 -167t-181 -110t-267 -38.5z" />
    <glyph glyph-name="ij" unicode="&#x133;" horiz-adv-x="854" 
d="M324 1137h-222v235h222v-235zM752 1137h-220v235h220v-235zM324 0h-222v1018h222v-1018zM391 -348h-63v170h71q133 0 133 127v1069h220v-1030q0 -181 -94 -258.5t-267 -77.5z" />
    <glyph glyph-name="Jcircumflex" unicode="&#x134;" horiz-adv-x="1292" 
d="M926 1495h-236l268 266h256l269 -266h-236l-151 154h-17zM618 -20q-299 0 -438 143t-139 399v64h233v-66q0 -175 74.5 -251t269.5 -76t272 74.5t77 242.5v862h231v-860q0 -121 -32 -216.5t-100 -167t-181 -110t-267 -38.5z" />
    <glyph glyph-name="jcircumflex" unicode="&#x135;" horiz-adv-x="428" 
d="M53 1147h-235l268 266h256l268 -266h-235l-152 153h-16zM-35 -348h-63v170h69q67 0 100 30t33 97v1069h222v-1030q0 -181 -94 -258.5t-267 -77.5z" />
    <glyph glyph-name="Kcommaaccent" unicode="&#x136;" horiz-adv-x="1417" 
d="M324 0h-222v1372h222v-586h415l402 586h262l-479 -678l477 -694h-262l-396 573h-419v-573zM645 -410h-244l195 267h305z" />
    <glyph glyph-name="kcommaaccent" unicode="&#x137;" horiz-adv-x="1183" 
d="M324 0h-222v1372h222v-758h290l306 404h258l-383 -490l381 -528h-261l-301 416h-290v-416zM504 -410h-215l178 267h276z" />
    <glyph glyph-name="Lacute" unicode="&#x139;" horiz-adv-x="1210" 
d="M338 1495h-236l263 260h309zM1169 0h-1067v1372h222v-1173h845v-199z" />
    <glyph glyph-name="lacute" unicode="&#x13a;" horiz-adv-x="425" 
d="M340 1495h-236l263 260h309zM324 0h-222v1372h222v-1372z" />
    <glyph glyph-name="Lcommaaccent" unicode="&#x13b;" horiz-adv-x="1210" 
d="M1169 0h-1067v1372h222v-1173h845v-199zM547 -410h-244l197 267h305z" />
    <glyph glyph-name="lcommaaccent" unicode="&#x13c;" horiz-adv-x="425" 
d="M324 0h-222v1372h222v-1372zM106 -410h-215l179 267h278z" />
    <glyph glyph-name="Lcaron" unicode="&#x13d;" horiz-adv-x="1210" 
d="M1169 0h-1067v1372h222v-1173h845v-199zM758 813h-72v145h66q28 0 39.5 11t11.5 43v43h-123v317h281v-358q0 -100 -52.5 -150.5t-150.5 -50.5z" />
    <glyph glyph-name="lcaron" unicode="&#x13e;" horiz-adv-x="643" 
d="M324 0h-222v1372h222v-1372zM492 928h-56v110h51q23 0 33 8t10 33v37h-96v256h213v-289q0 -155 -155 -155z" />
    <glyph glyph-name="Ldot" unicode="&#x13f;" horiz-adv-x="1210" 
d="M330 1495h-221v254h221v-254zM1169 0h-1067v1372h222v-1173h845v-199z" />
    <glyph glyph-name="ldot" unicode="&#x140;" horiz-adv-x="614" 
d="M324 0h-222v1372h222v-1372zM633 559h-219v254h219v-254z" />
    <glyph glyph-name="Lslash" unicode="&#x141;" horiz-adv-x="1316" 
d="M899 838l-469 -176v-463h846v-199h-1067v578l-189 -72v207l189 71v588h221v-504l469 176v-206z" />
    <glyph glyph-name="lslash" unicode="&#x142;" horiz-adv-x="661" 
d="M453 0h-222v678l-184 -96l-67 133l251 131v526h222v-409l161 84l68 -134l-229 -120v-793z" />
    <glyph glyph-name="Nacute" unicode="&#x143;" horiz-adv-x="1462" 
d="M850 1495h-234l261 260h311zM324 0h-222v1372h238l614 -803l179 -256h16l-10 248v811h221v-1372h-238l-618 801l-172 241h-17l9 -237v-805z" />
    <glyph glyph-name="nacute" unicode="&#x144;" horiz-adv-x="1259" 
d="M750 1147h-232l262 266h310zM324 0h-222v1018h203v-316h14q26 142 134.5 239t289.5 97q137 0 234 -58t142.5 -152.5t45.5 -215.5v-612h-221v553q0 145 -70.5 216t-226.5 71q-165 0 -244 -84t-79 -252v-504z" />
    <glyph glyph-name="Ncommaaccent" unicode="&#x145;" horiz-adv-x="1462" 
d="M324 0h-222v1372h238l614 -803l179 -256h16l-10 248v811h221v-1372h-238l-618 801l-172 241h-17l9 -237v-805zM641 -410h-244l195 267h305z" />
    <glyph glyph-name="ncommaaccent" unicode="&#x146;" horiz-adv-x="1259" 
d="M324 0h-222v1018h203v-316h14q26 142 134.5 239t289.5 97q137 0 234 -58t142.5 -152.5t45.5 -215.5v-612h-221v553q0 145 -70.5 216t-226.5 71q-165 0 -244 -84t-79 -252v-504zM537 -410h-215l178 267h278z" />
    <glyph glyph-name="Ncaron" unicode="&#x147;" horiz-adv-x="1462" 
d="M893 1761h235l-268 -266h-256l-268 266h235l152 -153h16zM324 0h-222v1372h238l614 -803l179 -256h16l-10 248v811h221v-1372h-238l-618 801l-172 241h-17l9 -237v-805z" />
    <glyph glyph-name="ncaron" unicode="&#x148;" horiz-adv-x="1259" 
d="M762 1147h-256l-268 266h243l146 -153h16l143 153h244zM324 0h-222v1018h203v-316h14q26 142 134.5 239t289.5 97q137 0 234 -58t142.5 -152.5t45.5 -215.5v-612h-221v553q0 145 -70.5 216t-226.5 71q-165 0 -244 -84t-79 -252v-504z" />
    <glyph glyph-name="Eng" unicode="&#x14a;" horiz-adv-x="1462" 
d="M997 -348h-149v201h151q75 0 100 18.5t25 75.5l2 47l-596 770l-198 278h-17l9 -274v-768h-222v1372h238l590 -770l203 -289h16l-10 281v778h221v-1372q0 -100 -25 -169t-74.5 -107.5t-113 -55t-150.5 -16.5z" />
    <glyph glyph-name="eng" unicode="&#x14b;" horiz-adv-x="1239" 
d="M313 0h-221v1018h203v-316h14q26 142 134.5 239t289.5 97q137 0 233.5 -58t141.5 -152.5t45 -215.5v-659q0 -158 -96.5 -229.5t-263.5 -71.5h-64v170h72q67 0 100 30t33 97v604q0 145 -70.5 216t-226.5 71q-165 0 -244.5 -84t-79.5 -252v-504z" />
    <glyph glyph-name="Omacron" unicode="&#x14c;" horiz-adv-x="1554" 
d="M1081 1552h-608v158h608v-158zM776 -20q-323 0 -519 193t-196 513t196 513.5t519 193.5q326 0 521.5 -193t195.5 -514t-195.5 -513.5t-521.5 -192.5zM776 193q246 0 365 119t119 374t-119 375.5t-365 120.5t-363.5 -120.5t-117.5 -375.5t117.5 -374t363.5 -119z" />
    <glyph glyph-name="omacron" unicode="&#x14d;" horiz-adv-x="1247" 
d="M926 1202h-607v158h607v-158zM623 -20q-253 0 -409.5 146.5t-156.5 381.5q0 238 156 384t410 146q255 0 411 -146t156 -384q0 -235 -156.5 -381.5t-410.5 -146.5zM623 176q182 0 266 83.5t84 248.5q0 167 -84 251.5t-266 84.5q-181 0 -265 -84.5t-84 -251.5
q0 -165 84 -248.5t265 -83.5z" />
    <glyph glyph-name="Obreve" unicode="&#x14e;" horiz-adv-x="1554" 
d="M778 1475q-132 0 -214.5 67.5t-82.5 177.5v23h160v-21q0 -56 31.5 -82t105.5 -26q75 0 105 26t30 82v21h160v-23q0 -110 -81.5 -177.5t-213.5 -67.5zM776 -20q-323 0 -519 193t-196 513t196 513.5t519 193.5q326 0 521.5 -193t195.5 -514t-195.5 -513.5t-521.5 -192.5z
M776 193q246 0 365 119t119 374t-119 375.5t-365 120.5t-363.5 -120.5t-117.5 -375.5t117.5 -374t363.5 -119z" />
    <glyph glyph-name="obreve" unicode="&#x14f;" horiz-adv-x="1247" 
d="M623 1126q-132 0 -213.5 68t-81.5 178v35h159v-33q0 -58 30.5 -84t105.5 -26q77 0 107 25.5t30 84.5v33h160v-35q0 -110 -82 -178t-215 -68zM623 -20q-253 0 -409.5 146.5t-156.5 381.5q0 238 156 384t410 146q255 0 411 -146t156 -384q0 -235 -156.5 -381.5
t-410.5 -146.5zM623 176q182 0 266 83.5t84 248.5q0 167 -84 251.5t-266 84.5q-181 0 -265 -84.5t-84 -251.5q0 -165 84 -248.5t265 -83.5z" />
    <glyph glyph-name="Ohungarumlaut" unicode="&#x150;" horiz-adv-x="1554" 
d="M1059 1495h-219l194 260h281zM639 1495h-217l192 260h283zM776 -20q-323 0 -519 193t-196 513t196 513.5t519 193.5q326 0 521.5 -193t195.5 -514t-195.5 -513.5t-521.5 -192.5zM776 193q246 0 365 119t119 374t-119 375.5t-365 120.5t-363.5 -120.5t-117.5 -375.5
t117.5 -374t363.5 -119z" />
    <glyph glyph-name="ohungarumlaut" unicode="&#x151;" horiz-adv-x="1247" 
d="M924 1147h-217l192 266h281zM506 1147h-219l192 266h283zM623 -20q-253 0 -409.5 146.5t-156.5 381.5q0 238 156 384t410 146q255 0 411 -146t156 -384q0 -235 -156.5 -381.5t-410.5 -146.5zM623 176q182 0 266 83.5t84 248.5q0 167 -84 251.5t-266 84.5
q-181 0 -265 -84.5t-84 -251.5q0 -165 84 -248.5t265 -83.5z" />
    <glyph glyph-name="OE" unicode="&#x152;" horiz-adv-x="2246" 
d="M2177 0h-1409q-329 0 -518 183.5t-189 502.5t189 502.5t518 183.5h1409v-198h-877v-386h846v-196h-846v-393h877v-199zM768 199h311v975h-311q-249 0 -361 -113.5t-112 -374.5t112 -374t361 -113z" />
    <glyph glyph-name="oe" unicode="&#x153;" horiz-adv-x="2125" 
d="M623 -20q-253 0 -409.5 146.5t-156.5 381.5q0 238 156 384t410 146q150 0 268.5 -52.5t193.5 -149.5q71 96 187 149t262 53q240 0 385 -127.5t145 -355.5q0 -34 -8 -96h-866q6 -152 86.5 -226.5t253.5 -74.5q303 0 303 190v17h219v-19q0 -162 -144 -264t-370 -102
q-152 0 -269.5 50.5t-187.5 147.5q-74 -95 -192 -146.5t-266 -51.5zM1530 864q-165 0 -247 -71t-91 -211h663v4q0 278 -325 278zM623 176q182 0 266 83.5t84 248.5q0 167 -84 251.5t-266 84.5q-181 0 -265 -84.5t-84 -251.5q0 -165 84 -248.5t265 -83.5z" />
    <glyph glyph-name="Racute" unicode="&#x154;" horiz-adv-x="1376" 
d="M823 1495h-235l262 260h309zM324 0h-222v1372h713q235 0 369.5 -106t134.5 -297q0 -170 -107 -270t-301 -111v-15q74 -20 119 -62t86 -114l230 -397h-254l-220 379q-32 57 -66.5 89t-90 48t-140.5 16h-251v-532zM324 1174v-472h489q142 0 209.5 55t67.5 181
q0 124 -68 180t-209 56h-489z" />
    <glyph glyph-name="racute" unicode="&#x155;" horiz-adv-x="1038" 
d="M668 1147h-234l262 266h310zM324 0h-222v1018h203v-275h14q25 132 113.5 213.5t237.5 81.5q84 0 148.5 -28.5t104 -78.5t59 -113.5t19.5 -137.5v-133h-219v90q0 110 -50 161.5t-163 51.5q-128 0 -186.5 -69.5t-58.5 -209.5v-571z" />
    <glyph glyph-name="Rcommaaccent" unicode="&#x156;" horiz-adv-x="1376" 
d="M324 0h-222v1372h713q235 0 369.5 -106t134.5 -297q0 -170 -107 -270t-301 -111v-15q74 -20 119 -62t86 -114l230 -397h-254l-220 379q-32 57 -66.5 89t-90 48t-140.5 16h-251v-532zM324 1174v-472h489q142 0 209.5 55t67.5 181q0 124 -68 180t-209 56h-489zM612 -410
h-243l196 267h305z" />
    <glyph glyph-name="rcommaaccent" unicode="&#x157;" horiz-adv-x="1038" 
d="M324 0h-222v1018h203v-275h14q25 132 113.5 213.5t237.5 81.5q84 0 148.5 -28.5t104 -78.5t59 -113.5t19.5 -137.5v-133h-219v90q0 110 -50 161.5t-163 51.5q-128 0 -186.5 -69.5t-58.5 -209.5v-571zM109 -410h-215l178 267h276z" />
    <glyph glyph-name="Rcaron" unicode="&#x158;" horiz-adv-x="1376" 
d="M866 1761h234l-269 -266h-253l-271 266h238l151 -153h17zM324 0h-222v1372h713q235 0 369.5 -106t134.5 -297q0 -170 -107 -270t-301 -111v-15q74 -20 119 -62t86 -114l230 -397h-254l-220 379q-32 57 -66.5 89t-90 48t-140.5 16h-251v-532zM324 1174v-472h489
q142 0 209.5 55t67.5 181q0 124 -68 180t-209 56h-489z" />
    <glyph glyph-name="rcaron" unicode="&#x159;" horiz-adv-x="1038" 
d="M678 1147h-254l-268 266h243l144 -153h16l146 153h243zM324 0h-222v1018h203v-275h14q25 132 113.5 213.5t237.5 81.5q84 0 148.5 -28.5t104 -78.5t59 -113.5t19.5 -137.5v-133h-219v90q0 110 -50 161.5t-163 51.5q-128 0 -186.5 -69.5t-58.5 -209.5v-571z" />
    <glyph glyph-name="Sacute" unicode="&#x15a;" horiz-adv-x="1308" 
d="M768 1495h-236l263 260h309zM678 -20q-302 0 -460.5 124t-158.5 345v12h222v-33q0 -128 89 -187t308 -59q193 0 273.5 44t80.5 143q0 87 -54.5 128.5t-189.5 67.5l-335 56q-396 70 -396 372q0 62 20 118.5t65.5 108.5t112.5 90t167.5 60.5t224.5 22.5q289 0 436.5 -129
t147.5 -340v-13h-219v27q0 130 -88.5 191t-296.5 61q-184 0 -266 -45t-82 -139q0 -86 51.5 -125.5t179.5 -67.5l334 -57q409 -73 409 -375q0 -81 -33.5 -151.5t-101 -127t-180.5 -89.5t-260 -33z" />
    <glyph glyph-name="sacute" unicode="&#x15b;" horiz-adv-x="1116" 
d="M668 1147h-234l262 266h310zM584 -20q-247 0 -380.5 94t-133.5 270v6h221v-16q0 -99 66 -137.5t227 -38.5q145 0 201.5 30.5t56.5 100.5q0 62 -42 89t-153 42l-278 37q-310 40 -310 276q0 138 123.5 221.5t352.5 83.5q237 0 368 -93.5t131 -272.5v-6h-219v12
q0 96 -62.5 140t-224.5 44q-138 0 -195 -32t-57 -105q0 -60 40 -87t155 -42l236 -33q183 -23 267.5 -89t84.5 -191q0 -141 -129 -222t-346 -81z" />
    <glyph glyph-name="Scircumflex" unicode="&#x15c;" horiz-adv-x="1308" 
d="M487 1495h-233l268 266h254l268 -266h-235l-152 154h-16zM678 -20q-302 0 -460.5 124t-158.5 345v12h222v-33q0 -128 89 -187t308 -59q193 0 273.5 44t80.5 143q0 87 -54.5 128.5t-189.5 67.5l-335 56q-396 70 -396 372q0 62 20 118.5t65.5 108.5t112.5 90t167.5 60.5
t224.5 22.5q289 0 436.5 -129t147.5 -340v-13h-219v27q0 130 -88.5 191t-296.5 61q-184 0 -266 -45t-82 -139q0 -86 51.5 -125.5t179.5 -67.5l334 -57q409 -73 409 -375q0 -81 -33.5 -151.5t-101 -127t-180.5 -89.5t-260 -33z" />
    <glyph glyph-name="scircumflex" unicode="&#x15d;" horiz-adv-x="1116" 
d="M389 1147h-233l268 266h254l270 -266h-237l-152 153h-16zM584 -20q-247 0 -380.5 94t-133.5 270v6h221v-16q0 -99 66 -137.5t227 -38.5q145 0 201.5 30.5t56.5 100.5q0 62 -42 89t-153 42l-278 37q-310 40 -310 276q0 138 123.5 221.5t352.5 83.5q237 0 368 -93.5
t131 -272.5v-6h-219v12q0 96 -62.5 140t-224.5 44q-138 0 -195 -32t-57 -105q0 -60 40 -87t155 -42l236 -33q183 -23 267.5 -89t84.5 -191q0 -141 -129 -222t-346 -81z" />
    <glyph glyph-name="Scedilla" unicode="&#x15e;" horiz-adv-x="1308" 
d="M678 -20h-2v-84h43q91 0 141.5 -45t50.5 -121q0 -79 -50.5 -124.5t-141.5 -45.5h-182v125h184q55 0 55 43q0 45 -55 45h-170v213q-241 26 -366.5 146.5t-125.5 316.5v12h222v-33q0 -128 89 -187t308 -59q193 0 273.5 44t80.5 143q0 87 -54.5 128.5t-189.5 67.5l-335 56
q-396 70 -396 372q0 62 20 118.5t65.5 108.5t112.5 90t167.5 60.5t224.5 22.5q289 0 436.5 -129t147.5 -340v-13h-219v27q0 130 -88.5 191t-296.5 61q-184 0 -266 -45t-82 -139q0 -86 51.5 -125.5t179.5 -67.5l334 -57q409 -73 409 -375q0 -81 -33.5 -151.5t-101 -127
t-180.5 -89.5t-260 -33z" />
    <glyph glyph-name="scedilla" unicode="&#x15f;" horiz-adv-x="1116" 
d="M670 -440h-181v125h183q55 0 55 43q0 45 -55 45h-170v209q-208 15 -320 108t-112 254v6h221v-16q0 -99 66 -137.5t227 -38.5q145 0 201.5 30.5t56.5 100.5q0 62 -42 89t-153 42l-278 37q-310 40 -310 276q0 138 123.5 221.5t352.5 83.5q237 0 368 -93.5t131 -272.5v-6
h-219v12q0 96 -62.5 140t-224.5 44q-138 0 -195 -32t-57 -105q0 -60 40 -87t155 -42l236 -33q183 -23 267.5 -89t84.5 -191q0 -134 -116.5 -214t-315.5 -89v-84h43q91 0 141.5 -45t50.5 -121q0 -79 -50.5 -124.5t-141.5 -45.5z" />
    <glyph glyph-name="Scaron" unicode="&#x160;" horiz-adv-x="1308" 
d="M811 1761h233l-266 -266h-256l-268 266h235l152 -153h16zM678 -20q-302 0 -460.5 124t-158.5 345v12h222v-33q0 -128 89 -187t308 -59q193 0 273.5 44t80.5 143q0 87 -54.5 128.5t-189.5 67.5l-335 56q-396 70 -396 372q0 62 20 118.5t65.5 108.5t112.5 90t167.5 60.5
t224.5 22.5q289 0 436.5 -129t147.5 -340v-13h-219v27q0 130 -88.5 191t-296.5 61q-184 0 -266 -45t-82 -139q0 -86 51.5 -125.5t179.5 -67.5l334 -57q409 -73 409 -375q0 -81 -33.5 -151.5t-101 -127t-180.5 -89.5t-260 -33z" />
    <glyph glyph-name="scaron" unicode="&#x161;" horiz-adv-x="1116" 
d="M678 1147h-254l-268 266h241l146 -153h16l146 153h243zM584 -20q-247 0 -380.5 94t-133.5 270v6h221v-16q0 -99 66 -137.5t227 -38.5q145 0 201.5 30.5t56.5 100.5q0 62 -42 89t-153 42l-278 37q-310 40 -310 276q0 138 123.5 221.5t352.5 83.5q237 0 368 -93.5
t131 -272.5v-6h-219v12q0 96 -62.5 140t-224.5 44q-138 0 -195 -32t-57 -105q0 -60 40 -87t155 -42l236 -33q183 -23 267.5 -89t84.5 -191q0 -141 -129 -222t-346 -81z" />
    <glyph glyph-name="Tcedilla" unicode="&#x162;" horiz-adv-x="1349" 
d="M784 0h-98v-104h43q91 0 142 -45t51 -121q0 -79 -51 -124.5t-142 -45.5h-182v125h184q55 0 55 43q0 45 -55 45h-170v233h4v1168h-540v198h1298v-198h-539v-1174z" />
    <glyph glyph-name="tcedilla" unicode="&#x163;" horiz-adv-x="806" 
d="M770 0h-160v-104h43q92 0 142.5 -45t50.5 -121q0 -79 -50 -124.5t-143 -45.5h-180v125h182q56 0 56 43q0 45 -56 45h-170v229q-303 23 -303 342v490h-172v184h172v223h219v-223h369v-184h-369v-478q0 -90 43 -123.5t142 -33.5h184v-199z" />
    <glyph glyph-name="Tcaron" unicode="&#x164;" horiz-adv-x="1349" 
d="M836 1761h235l-268 -266h-254l-270 266h237l152 -153h16zM784 0h-219v1174h-540v198h1298v-198h-539v-1174z" />
    <glyph glyph-name="tcaron" unicode="&#x165;" horiz-adv-x="747" 
d="M559 1124h-55v111h51q23 0 32 9t9 34v35h-94v256h213v-289q0 -77 -40.5 -116.5t-115.5 -39.5zM770 0h-233q-355 0 -355 344v490h-172v184h172v223h219v-223h369v-184h-369v-478q0 -90 43 -123.5t142 -33.5h184v-199z" />
    <glyph glyph-name="Tbar" unicode="&#x166;" horiz-adv-x="1349" 
d="M784 0h-219v616h-327v199h327v359h-540v198h1298v-198h-539v-359h330v-199h-330v-616z" />
    <glyph glyph-name="tbar" unicode="&#x167;" horiz-adv-x="806" 
d="M770 0h-233q-355 0 -355 344v158h-172v162h172v190h-172v164h172v223h219v-223h369v-164h-369v-190h369v-162h-369v-146q0 -90 43 -123.5t142 -33.5h184v-199z" />
    <glyph glyph-name="Utilde" unicode="&#x168;" horiz-adv-x="1476" 
d="M553 1507h-150v82q0 185 164 185q62 0 158 -54l51 -28q58 -35 92 -35q58 0 58 69v39h149v-79q0 -86 -39 -136.5t-116 -50.5q-72 0 -162 53l-66 33q-54 35 -88 35q-51 0 -51 -64v-49zM737 -20q-307 0 -475 154.5t-168 434.5v803h219v-788q0 -207 99.5 -299t324.5 -92
t324.5 92t99.5 299v788h221v-803q0 -280 -168.5 -434.5t-476.5 -154.5z" />
    <glyph glyph-name="utilde" unicode="&#x169;" 
d="M449 1159h-150v84q0 182 166 182q62 0 156 -53l53 -29q56 -34 92 -34q55 0 55 69v39h150v-80q0 -86 -39.5 -136t-116.5 -50q-72 0 -162 53l-63 33q-58 35 -88 35q-53 0 -53 -62v-51zM526 -20q-206 0 -316 119.5t-110 306.5v612h219v-553q0 -145 72.5 -216t231.5 -71
q329 0 329 336v504h219v-1018h-202v315h-13q-13 -67 -45 -125.5t-83.5 -106t-129 -75.5t-172.5 -28z" />
    <glyph glyph-name="Umacron" unicode="&#x16a;" horiz-adv-x="1476" 
d="M1040 1552h-606v158h606v-158zM737 -20q-307 0 -475 154.5t-168 434.5v803h219v-788q0 -207 99.5 -299t324.5 -92t324.5 92t99.5 299v788h221v-803q0 -280 -168.5 -434.5t-476.5 -154.5z" />
    <glyph glyph-name="umacron" unicode="&#x16b;" 
d="M938 1202h-606v158h606v-158zM526 -20q-206 0 -316 119.5t-110 306.5v612h219v-553q0 -145 72.5 -216t231.5 -71q329 0 329 336v504h219v-1018h-202v315h-13q-13 -67 -45 -125.5t-83.5 -106t-129 -75.5t-172.5 -28z" />
    <glyph glyph-name="Ubreve" unicode="&#x16c;" horiz-adv-x="1476" 
d="M737 1475q-132 0 -213.5 67.5t-81.5 177.5v23h160v-21q0 -56 30.5 -82t104.5 -26q77 0 107 26t30 82v21h160v-23q0 -110 -82.5 -177.5t-214.5 -67.5zM737 -20q-307 0 -475 154.5t-168 434.5v803h219v-788q0 -207 99.5 -299t324.5 -92t324.5 92t99.5 299v788h221v-803
q0 -280 -168.5 -434.5t-476.5 -154.5z" />
    <glyph glyph-name="ubreve" unicode="&#x16d;" 
d="M635 1126q-132 0 -213.5 68t-81.5 178v35h160v-33q0 -58 30 -84t105 -26q77 0 107 25.5t30 84.5v33h160v-35q0 -110 -82.5 -178t-214.5 -68zM526 -20q-206 0 -316 119.5t-110 306.5v612h219v-553q0 -145 72.5 -216t231.5 -71q329 0 329 336v504h219v-1018h-202v315h-13
q-13 -67 -45 -125.5t-83.5 -106t-129 -75.5t-172.5 -28z" />
    <glyph glyph-name="Uring" unicode="&#x16e;" horiz-adv-x="1476" 
d="M737 1423q-102 0 -165.5 55t-63.5 144q0 90 63.5 145.5t165.5 55.5q103 0 167.5 -55.5t64.5 -145.5q0 -89 -64.5 -144t-167.5 -55zM737 1532q58 0 84.5 22t26.5 68q0 92 -111 92q-110 0 -110 -92q0 -90 110 -90zM737 -20q-307 0 -475 154.5t-168 434.5v803h219v-788
q0 -207 99.5 -299t324.5 -92t324.5 92t99.5 299v788h221v-803q0 -280 -168.5 -434.5t-476.5 -154.5z" />
    <glyph glyph-name="uring" unicode="&#x16f;" 
d="M635 1114q-93 0 -150 49.5t-57 130.5t57 131t150 50q94 0 151.5 -49.5t57.5 -131.5t-57.5 -131t-151.5 -49zM635 1210q56 0 80 20.5t24 63.5t-24 63.5t-80 20.5t-80.5 -21t-24.5 -63t24.5 -63t80.5 -21zM526 -20q-206 0 -316 119.5t-110 306.5v612h219v-553
q0 -145 72.5 -216t231.5 -71q329 0 329 336v504h219v-1018h-202v315h-13q-13 -67 -45 -125.5t-83.5 -106t-129 -75.5t-172.5 -28z" />
    <glyph glyph-name="Uhungarumlaut" unicode="&#x170;" horiz-adv-x="1476" 
d="M1018 1495h-217l192 260h283zM600 1495h-217l190 260h283zM737 -20q-307 0 -475 154.5t-168 434.5v803h219v-788q0 -207 99.5 -299t324.5 -92t324.5 92t99.5 299v788h221v-803q0 -280 -168.5 -434.5t-476.5 -154.5z" />
    <glyph glyph-name="uhungarumlaut" unicode="&#x171;" 
d="M936 1147h-219l194 266h281zM516 1147h-217l193 266h282zM526 -20q-206 0 -316 119.5t-110 306.5v612h219v-553q0 -145 72.5 -216t231.5 -71q329 0 329 336v504h219v-1018h-202v315h-13q-13 -67 -45 -125.5t-83.5 -106t-129 -75.5t-172.5 -28z" />
    <glyph glyph-name="Uogonek" unicode="&#x172;" horiz-adv-x="1476" 
d="M961 -383h-166q-98 0 -147.5 37t-49.5 104q0 26 6.5 49t24.5 49t27 37t36 41l41 46q-305 1 -472 155.5t-167 433.5v803h219v-788q0 -207 99.5 -299t324.5 -92t324.5 92t99.5 299v788h221v-803q0 -242 -127 -391t-364 -186l-80 -103q-41 -50 -41 -82q0 -51 70 -51h121
v-139z" />
    <glyph glyph-name="uogonek" unicode="&#x173;" 
d="M526 -20q-206 0 -316 119.5t-110 306.5v612h219v-553q0 -145 72.5 -216t231.5 -71q329 0 329 336v504h219v-1018l-88 -111q-41 -50 -41 -82q0 -51 70 -51h121v-139h-166q-98 0 -147.5 37t-49.5 104q0 21 7 43t11.5 34t24 37t23 29t29.5 33l59 66h-55v315h-13
q-13 -67 -45 -125.5t-83.5 -106t-129 -75.5t-172.5 -28z" />
    <glyph glyph-name="Wcircumflex" unicode="&#x174;" horiz-adv-x="2168" 
d="M924 1495h-236l268 266h256l269 -266h-236l-151 154h-17zM717 0h-326l-362 1372h245l224 -868l61 -291h16l74 291l277 868h321l295 -868l78 -291h16l58 291l204 868h242l-344 -1372h-326l-276 799l-100 352h-19l-98 -352z" />
    <glyph glyph-name="wcircumflex" unicode="&#x175;" horiz-adv-x="1804" 
d="M741 1147h-235l268 266h254l270 -266h-235l-154 153h-16zM590 0h-275l-305 1018h230l170 -578l47 -262h16l76 283l213 557h282l216 -557l75 -283h17l47 262l170 578h225l-309 -1018h-275l-223 586l-78 250h-16l-78 -250z" />
    <glyph glyph-name="Ycircumflex" unicode="&#x176;" horiz-adv-x="1400" 
d="M541 1495h-236l268 266h254l271 -266h-238l-151 154h-17zM807 0h-219v473l-602 899h270l324 -487l114 -174h17l112 174l322 487h272l-610 -903v-469z" />
    <glyph glyph-name="ycircumflex" unicode="&#x177;" horiz-adv-x="1210" 
d="M440 1147h-235l268 266h256l268 -266h-235l-152 153h-16zM266 -348h-145v201h198q67 0 101 20.5t57 73.5l25 53l-502 1018h248l260 -541l100 -244h17l96 246l240 539h243l-530 -1129q-62 -133 -154.5 -185t-253.5 -52z" />
    <glyph glyph-name="Ydieresis" unicode="&#x178;" horiz-adv-x="1400" 
d="M997 1495h-211v254h211v-254zM614 1495h-211v254h211v-254zM807 0h-219v473l-602 899h270l324 -487l114 -174h17l112 174l322 487h272l-610 -903v-469z" />
    <glyph glyph-name="Zacute" unicode="&#x179;" horiz-adv-x="1378" 
d="M807 1495h-234l263 260h309zM1311 0h-1243v199l895 958v17h-869v198h1194v-198l-911 -959v-16h934v-199z" />
    <glyph glyph-name="zacute" unicode="&#x17a;" horiz-adv-x="1148" 
d="M690 1147h-233l262 266h309zM1102 0h-1055v190l518 463l215 162v16l-215 -8h-487v195h993v-191l-555 -487l-188 -139v-17l188 11h586v-195z" />
    <glyph glyph-name="Zdotaccent" unicode="&#x17b;" horiz-adv-x="1378" 
d="M799 1495h-219v254h219v-254zM1311 0h-1243v199l895 958v17h-869v198h1194v-198l-911 -959v-16h934v-199z" />
    <glyph glyph-name="zdotaccent" unicode="&#x17c;" horiz-adv-x="1148" 
d="M684 1147h-219v254h219v-254zM1102 0h-1055v190l518 463l215 162v16l-215 -8h-487v195h993v-191l-555 -487l-188 -139v-17l188 11h586v-195z" />
    <glyph glyph-name="Zcaron" unicode="&#x17d;" horiz-adv-x="1378" 
d="M850 1761h235l-268 -266h-254l-270 266h237l152 -153h16zM1311 0h-1243v199l895 958v17h-869v198h1194v-198l-911 -959v-16h934v-199z" />
    <glyph glyph-name="zcaron" unicode="&#x17e;" horiz-adv-x="1148" 
d="M700 1147h-254l-268 266h244l143 -153h17l145 153h244zM1102 0h-1055v190l518 463l215 162v16l-215 -8h-487v195h993v-191l-555 -487l-188 -139v-17l188 11h586v-195z" />
    <glyph glyph-name="florin" unicode="&#x192;" horiz-adv-x="1056" 
d="M86 -348h-106l34 198h84q119 0 168 38.5t68 142.5l96 557h-219l35 196h219l35 199q35 200 155 294.5t342 94.5h80l-35 -198h-86q-117 0 -165.5 -38.5t-67.5 -142.5l-37 -209h289l-37 -196h-287l-96 -547q-36 -209 -146.5 -299t-322.5 -90z" />
    <glyph glyph-name="AEacute" unicode="&#x1fc;" horiz-adv-x="2320" 
d="M1819 1495h-234l260 260h312zM264 0h-272l1038 1372h1221v-198h-879v-386h848v-196h-848v-393h879v-199h-1098v356h-621zM1139 1159l-457 -604h471v604h-14z" />
    <glyph glyph-name="aeacute" unicode="&#x1fd;" horiz-adv-x="1984" 
d="M1114 1147h-233l262 266h309zM412 -20q-166 0 -263.5 70.5t-97.5 195.5q0 118 86.5 183t243.5 81l485 51v55q0 126 -62.5 177t-215.5 51q-151 0 -222 -50t-71 -161v-15h-221v15q0 178 139.5 291.5t378.5 113.5q283 0 403 -168q73 81 180.5 124.5t239.5 43.5
q240 0 385.5 -128t145.5 -355q0 -26 -9 -96h-866q6 -152 86.5 -226.5t253.5 -74.5q303 0 303 190v17h219v-19q0 -162 -144 -264t-370 -102q-188 0 -320 75t-190 219h-12q-44 -143 -175 -218.5t-310 -75.5zM1411 864q-165 0 -247 -71t-91 -211h664v4q0 278 -326 278zM272 260
q0 -121 193 -121q385 0 405 283v4l-428 -45q-87 -10 -128.5 -37t-41.5 -84z" />
    <glyph glyph-name="Oslashacute" unicode="&#x1fe;" horiz-adv-x="1554" 
d="M895 1495h-233l262 260h309zM776 -20q-269 0 -454 137l-156 -156l-111 115l152 153q-146 182 -146 457q0 320 196 513.5t519 193.5q265 0 453 -136l151 152l111 -115l-145 -147q147 -186 147 -461q0 -321 -195.5 -513.5t-521.5 -192.5zM295 686q0 -193 65 -303l721 725
q-115 74 -305 74q-246 0 -363.5 -120.5t-117.5 -375.5zM776 193q246 0 365 119t119 374q0 192 -68 307l-723 -727q113 -73 307 -73z" />
    <glyph glyph-name="oslashacute" unicode="&#x1ff;" horiz-adv-x="1247" 
d="M739 1147h-233l262 266h309zM623 -20q-213 0 -355 102l-123 -119l-88 92l117 113q-117 139 -117 340q0 238 156 384t410 146q199 0 346 -94l112 109l86 -92l-102 -101q125 -141 125 -352q0 -235 -156.5 -381.5t-410.5 -146.5zM274 508q0 -122 45 -199l506 494
q-77 41 -202 41q-181 0 -265 -84.5t-84 -251.5zM623 176q182 0 266 83.5t84 248.5q0 133 -51 213l-512 -500q77 -45 213 -45z" />
    <glyph glyph-name="Scommaaccent" unicode="&#x218;" horiz-adv-x="1308" 
d="M678 -20q-302 0 -460.5 124t-158.5 345v12h222v-33q0 -128 89 -187t308 -59q193 0 273.5 44t80.5 143q0 87 -54.5 128.5t-189.5 67.5l-335 56q-396 70 -396 372q0 62 20 118.5t65.5 108.5t112.5 90t167.5 60.5t224.5 22.5q289 0 436.5 -129t147.5 -340v-13h-219v27
q0 130 -88.5 191t-296.5 61q-184 0 -266 -45t-82 -139q0 -86 51.5 -125.5t179.5 -67.5l334 -57q409 -73 409 -375q0 -81 -33.5 -151.5t-101 -127t-180.5 -89.5t-260 -33zM612 -410h-243l196 267h305z" />
    <glyph glyph-name="scommaaccent" unicode="&#x219;" horiz-adv-x="1116" 
d="M584 -20q-247 0 -380.5 94t-133.5 270v6h221v-16q0 -99 66 -137.5t227 -38.5q145 0 201.5 30.5t56.5 100.5q0 62 -42 89t-153 42l-278 37q-310 40 -310 276q0 138 123.5 221.5t352.5 83.5q237 0 368 -93.5t131 -272.5v-6h-219v12q0 96 -62.5 140t-224.5 44
q-138 0 -195 -32t-57 -105q0 -60 40 -87t155 -42l236 -33q183 -23 267.5 -89t84.5 -191q0 -141 -129 -222t-346 -81zM471 -410h-215l178 267h279z" />
    <glyph glyph-name="Tcommaaccent" unicode="&#x21a;" horiz-adv-x="1349" 
d="M784 0h-219v1174h-540v198h1298v-198h-539v-1174zM623 -410h-244l196 267h306z" />
    <glyph glyph-name="tcommaaccent" unicode="&#x21b;" horiz-adv-x="806" 
d="M770 0h-233q-355 0 -355 344v490h-172v184h172v223h219v-223h369v-184h-369v-478q0 -90 43 -123.5t142 -33.5h184v-199zM455 -410h-215l178 267h278z" />
    <glyph glyph-name="dotlessj" unicode="&#x237;" horiz-adv-x="428" 
d="M-35 -348h-63v170h69q67 0 100 30t33 97v1069h222v-1030q0 -181 -94 -258.5t-267 -77.5z" />
    <glyph glyph-name="gravecomb" unicode="&#x300;" horiz-adv-x="739" 
d="M494 1147h-232l-338 266h309z" />
    <glyph glyph-name="acutecomb" unicode="&#x301;" horiz-adv-x="739" 
d="M481 1147h-233l262 266h309z" />
    <glyph glyph-name="circumflexcomb" unicode="&#x302;" horiz-adv-x="1015" 
d="M350 1147h-235l268 266h256l268 -266h-235l-152 153h-16z" />
    <glyph glyph-name="tildecomb" unicode="&#x303;" horiz-adv-x="847" 
d="M242 1159h-150v84q0 182 166 182q61 0 158 -53l51 -29q56 -34 92 -34q57 0 57 69v39h148v-80q0 -86 -39 -136t-115 -50q-74 0 -164 53l-63 33q-58 35 -88 35q-53 0 -53 -62v-51z" />
    <glyph glyph-name="macroncomb" unicode="&#x304;" horiz-adv-x="811" 
d="M709 1202h-607v158h607v-158z" />
    <glyph glyph-name="brevecomb" unicode="&#x306;" horiz-adv-x="737" 
d="M369 1126q-132 0 -213.5 68t-81.5 178v35h159v-33q0 -58 30.5 -84t105.5 -26q77 0 106 25.5t29 84.5v33h160v-35q0 -110 -81.5 -178t-213.5 -68z" />
    <glyph glyph-name="dotaccentcomb" unicode="&#x307;" horiz-adv-x="378" 
d="M299 1147h-219v254h219v-254z" />
    <glyph glyph-name="dieresiscomb" unicode="&#x308;" horiz-adv-x="776" 
d="M684 1147h-209v254h209v-254zM301 1147h-209v254h209v-254z" />
    <glyph glyph-name="ringcomb" unicode="&#x30a;" horiz-adv-x="555" 
d="M279 1114q-94 0 -151.5 49t-57.5 131t57.5 131.5t151.5 49.5q92 0 149 -49.5t57 -131.5q0 -81 -56.5 -130.5t-149.5 -49.5zM279 1210q54 0 78 21t24 63t-24 63t-78 21q-56 0 -80.5 -21t-24.5 -63t24.5 -63t80.5 -21z" />
    <glyph glyph-name="hungarumlautcomb" unicode="&#x30b;" horiz-adv-x="1054" 
d="M838 1147h-220l195 266h281zM418 1147h-217l192 266h283z" />
    <glyph glyph-name="caroncomb" unicode="&#x30c;" horiz-adv-x="1015" 
d="M639 1147h-256l-268 266h243l146 -153h16l144 153h243z" />
    <glyph glyph-name="commaturnedabovecomb" unicode="&#x312;" horiz-adv-x="1286" 
d="M741 1413h215l-178 -266h-276z" />
    <glyph glyph-name="commaaccentcomb" unicode="&#x326;" horiz-adv-x="624" 
d="M260 -410h-215l178 267h277z" />
    <glyph glyph-name="cedillacomb" unicode="&#x327;" horiz-adv-x="565" 
d="M412 -440h-183v125h185q55 0 55 43q0 45 -55 45h-170v233h123v-110h45q91 0 141.5 -45t50.5 -121q0 -79 -50.5 -124.5t-141.5 -45.5z" />
    <glyph glyph-name="ogonekcomb" unicode="&#x328;" horiz-adv-x="514" 
d="M451 -383h-166q-98 0 -147.5 37t-49.5 104q0 26 6.5 49t24.5 49t27 37t36 41l60 66h147l-88 -111q-41 -50 -41 -82q0 -51 70 -51h121v-139z" />
    <glyph glyph-name="strokeshortcomb" unicode="&#x335;" horiz-adv-x="1355" 
d="M1071 1057h-786v170h786v-170z" />
    <glyph glyph-name="slashshortcomb" unicode="&#x337;" horiz-adv-x="702" 
d="M702 913l-634 -331l-68 133l635 332z" />
    <glyph glyph-name="slashlongcomb" unicode="&#x338;" horiz-adv-x="1216" 
d="M1163 963l-1022 -998l-86 92l1022 998z" />
    <glyph glyph-name="Wgrave" unicode="&#x1e80;" horiz-adv-x="2168" 
d="M1200 1495h-233l-338 260h311zM717 0h-326l-362 1372h245l224 -868l61 -291h16l74 291l277 868h321l295 -868l78 -291h16l58 291l204 868h242l-344 -1372h-326l-276 799l-100 352h-19l-98 -352z" />
    <glyph glyph-name="wgrave" unicode="&#x1e81;" horiz-adv-x="1804" 
d="M1020 1147h-232l-337 266h309zM590 0h-275l-305 1018h230l170 -578l47 -262h16l76 283l213 557h282l216 -557l75 -283h17l47 262l170 578h225l-309 -1018h-275l-223 586l-78 250h-16l-78 -250z" />
    <glyph glyph-name="Wacute" unicode="&#x1e82;" horiz-adv-x="2168" 
d="M1204 1495h-235l262 260h309zM717 0h-326l-362 1372h245l224 -868l61 -291h16l74 291l277 868h321l295 -868l78 -291h16l58 291l204 868h242l-344 -1372h-326l-276 799l-100 352h-19l-98 -352z" />
    <glyph glyph-name="wacute" unicode="&#x1e83;" horiz-adv-x="1804" 
d="M1018 1147h-234l263 266h309zM590 0h-275l-305 1018h230l170 -578l47 -262h16l76 283l213 557h282l216 -557l75 -283h17l47 262l170 578h225l-309 -1018h-275l-223 586l-78 250h-16l-78 -250z" />
    <glyph glyph-name="Wdieresis" unicode="&#x1e84;" horiz-adv-x="2168" 
d="M1382 1495h-211v254h211v-254zM999 1495h-211v254h211v-254zM717 0h-326l-362 1372h245l224 -868l61 -291h16l74 291l277 868h321l295 -868l78 -291h16l58 291l204 868h242l-344 -1372h-326l-276 799l-100 352h-19l-98 -352z" />
    <glyph glyph-name="wdieresis" unicode="&#x1e85;" horiz-adv-x="1804" 
d="M1198 1147h-209v254h209v-254zM815 1147h-209v254h209v-254zM590 0h-275l-305 1018h230l170 -578l47 -262h16l76 283l213 557h282l216 -557l75 -283h17l47 262l170 578h225l-309 -1018h-275l-223 586l-78 250h-16l-78 -250z" />
    <glyph glyph-name="Etilde" unicode="&#x1ebc;" 
d="M465 1507h-150v82q0 185 164 185q62 0 158 -54l53 -28q58 -35 92 -35q58 0 58 69v39h147v-79q0 -86 -39.5 -136.5t-116.5 -50.5q-71 0 -161 53l-64 33q-58 35 -90 35q-51 0 -51 -64v-49zM1200 0h-1098v1372h1098v-198h-876v-386h845v-196h-845v-393h876v-199z" />
    <glyph glyph-name="etilde" unicode="&#x1ebd;" horiz-adv-x="1204" 
d="M416 1159h-150v84q0 182 164 182q64 0 158 -53l51 -29q56 -34 92 -34q57 0 57 69v39h148v-80q0 -86 -38.5 -136t-115.5 -50q-75 0 -161 53l-66 33q-58 35 -88 35q-51 0 -51 -62v-51zM614 -20q-255 0 -404 138.5t-149 389.5q0 238 150.5 384t398.5 146q241 0 386 -127.5
t145 -355.5q0 -55 -8 -96h-865q6 -152 86.5 -226.5t253.5 -74.5q301 0 301 190v17h221v-19q0 -162 -144 -264t-372 -102zM606 864q-165 0 -246 -71t-90 -211h662v4q0 278 -326 278z" />
    <glyph glyph-name="Ygrave" unicode="&#x1ef2;" horiz-adv-x="1400" 
d="M817 1495h-233l-338 260h309zM807 0h-219v473l-602 899h270l324 -487l114 -174h17l112 174l322 487h272l-610 -903v-469z" />
    <glyph glyph-name="ygrave" unicode="&#x1ef3;" horiz-adv-x="1210" 
d="M721 1147h-234l-337 266h309zM266 -348h-145v201h198q67 0 101 20.5t57 73.5l25 53l-502 1018h248l260 -541l100 -244h17l96 246l240 539h243l-530 -1129q-62 -133 -154.5 -185t-253.5 -52z" />
    <glyph glyph-name="Ytilde" unicode="&#x1ef8;" horiz-adv-x="1400" 
d="M516 1507h-149v82q0 185 163 185q62 0 158 -54l51 -28q58 -35 92 -35q58 0 58 69v39h147v-79q0 -86 -38.5 -136.5t-114.5 -50.5t-162 53l-66 33q-54 35 -88 35q-51 0 -51 -64v-49zM807 0h-219v473l-602 899h270l324 -487l114 -174h17l112 174l322 487h272l-610 -903v-469
z" />
    <glyph glyph-name="ytilde" unicode="&#x1ef9;" horiz-adv-x="1210" 
d="M416 1159h-150v84q0 182 164 182q64 0 158 -53l51 -29q56 -34 92 -34q57 0 57 69v39h150v-80q0 -86 -39.5 -136t-116.5 -50q-71 0 -161 53l-64 33q-58 35 -90 35q-51 0 -51 -62v-51zM266 -348h-145v201h198q67 0 101 20.5t57 73.5l25 53l-502 1018h248l260 -541l100 -244
h17l96 246l240 539h243l-530 -1129q-62 -133 -154.5 -185t-253.5 -52z" />
    <glyph glyph-name="endash" unicode="&#x2013;" horiz-adv-x="1056" 
d="M995 508h-934v188h934v-188z" />
    <glyph glyph-name="emdash" unicode="&#x2014;" horiz-adv-x="1759" 
d="M1698 508h-1637v188h1637v-188z" />
    <glyph glyph-name="quoteleft" unicode="&#x2018;" horiz-adv-x="401" 
d="M264 1413h74v-135h-70q-28 0 -39.5 -10t-11.5 -41v-43h123v-318h-279v359q0 94 53 141t150 47z" />
    <glyph glyph-name="quoteright" unicode="&#x2019;" horiz-adv-x="401" 
d="M139 823h-73v135h67q27 0 39 11.5t12 42.5v43h-123v317h279v-358q0 -95 -52 -143t-149 -48z" />
    <glyph glyph-name="quotesinglbase" unicode="&#x201a;" horiz-adv-x="538" 
d="M139 -229h-73v135h67q28 0 39.5 10t11.5 41v43h-123v317h279v-358q0 -94 -52 -141t-149 -47z" />
    <glyph glyph-name="quotedblleft" unicode="&#x201c;" horiz-adv-x="784" 
d="M264 1413h74v-135h-70q-28 0 -39.5 -10t-11.5 -41v-43h123v-318h-279v359q0 94 53 141t150 47zM645 1413h74v-135h-68q-28 0 -39.5 -10t-11.5 -41v-43h123v-318h-281v359q0 94 53 141t150 47z" />
    <glyph glyph-name="quotedblright" unicode="&#x201d;" horiz-adv-x="784" 
d="M520 823h-74v135h70q27 0 38 11.5t11 42.5v43h-123v317h281v-358q0 -95 -53 -143t-150 -48zM139 823h-73v135h67q27 0 39 11.5t12 42.5v43h-123v317h279v-358q0 -95 -52 -143t-149 -48z" />
    <glyph glyph-name="quotedblbase" unicode="&#x201e;" horiz-adv-x="784" 
d="M139 -229h-73v135h67q28 0 39.5 10t11.5 41v43h-123v317h279v-358q0 -94 -52 -141t-149 -47zM520 -229h-74v135h70q28 0 38.5 10t10.5 41v43h-123v317h281v-358q0 -94 -53 -141t-150 -47z" />
    <glyph glyph-name="dagger" unicode="&#x2020;" horiz-adv-x="1040" 
d="M629 0h-219v860h-369v184h369v328h219v-328h370v-184h-370v-860z" />
    <glyph glyph-name="daggerdbl" unicode="&#x2021;" horiz-adv-x="1040" 
d="M629 0h-219v328h-369v184h369v348h-369v184h369v328h219v-328h370v-184h-370v-348h370v-184h-370v-328z" />
    <glyph glyph-name="bullet" unicode="&#x2022;" horiz-adv-x="606" 
d="M303 434q-106 0 -179 69t-73 183t73 183t179 69t179 -69t73 -183t-73 -183t-179 -69z" />
    <glyph glyph-name="ellipsis" unicode="&#x2026;" horiz-adv-x="1325" 
d="M350 0h-278v317h278v-317zM803 0h-281v317h281v-317zM1253 -2h-278v319h278v-319z" />
    <glyph glyph-name="perthousand" unicode="&#x2030;" horiz-adv-x="2439" 
d="M393 713q-165 0 -258.5 96t-93.5 246q0 147 93.5 243.5t258.5 96.5q166 0 259 -96.5t93 -243.5q0 -150 -93 -246t-259 -96zM348 0h-215l1165 1372h215zM393 862q100 0 144.5 47.5t44.5 145.5q0 96 -44.5 143t-144.5 47t-144 -47t-44 -143q0 -98 44 -145.5t144 -47.5z
M2046 -20q-166 0 -259 95t-93 244q0 148 93.5 244t258.5 96q166 0 259 -96t93 -244q0 -150 -92.5 -244.5t-259.5 -94.5zM1251 -20q-166 0 -259 95t-93 244q0 148 93.5 244t258.5 96q166 0 259.5 -96t93.5 -244q0 -150 -93 -244.5t-260 -94.5zM2046 129q101 0 144.5 46
t43.5 144t-44 145.5t-144 47.5t-144 -47.5t-44 -145.5t43.5 -144t144.5 -46zM1251 129q101 0 145 46.5t44 143.5q0 98 -44.5 145.5t-144.5 47.5t-144 -47.5t-44 -145.5t43.5 -144t144.5 -46z" />
    <glyph glyph-name="guilsinglleft" unicode="&#x2039;" horiz-adv-x="512" 
d="M41 743l410 285v-227l-258 -168v-17l258 -167v-228l-410 285v237z" />
    <glyph glyph-name="guilsinglright" unicode="&#x203a;" horiz-adv-x="512" 
d="M471 506l-410 -285v228l256 167v17l-256 168v227l410 -285v-237z" />
    <glyph glyph-name="fraction" unicode="&#x2044;" horiz-adv-x="430" 
d="M-258 0h-217l1165 1372h217z" />
    <glyph glyph-name="zero.superior" unicode="&#x2070;" horiz-adv-x="827" 
d="M414 666q-173 0 -273 99.5t-100 262.5q0 164 100.5 264.5t272.5 100.5q171 0 271.5 -101t100.5 -264t-100.5 -262.5t-271.5 -99.5zM414 817q102 0 152 51t50 160q0 111 -49.5 162t-152.5 51q-104 0 -154.5 -51t-50.5 -162q0 -109 50.5 -160t154.5 -51z" />
    <glyph glyph-name="four.superior" unicode="&#x2074;" horiz-adv-x="790" 
d="M623 686h-162v137h-441v123l414 426h189v-405h127v-144h-127v-137zM213 967h248v247h-12l-236 -233v-14z" />
    <glyph glyph-name="Euro" unicode="&#x20ac;" horiz-adv-x="1345" 
d="M1042 473h-577q39 -144 144.5 -209t291.5 -65h383v-199h-383q-260 0 -435.5 124.5t-234.5 348.5h-211v143h189q-2 23 -2 70q0 45 2 68h-189v143h211q57 225 232.5 350t437.5 125h383v-198h-383q-186 0 -292.5 -65.5t-145.5 -211.5h579v-143h-600q-2 -20 -2 -68
q0 -47 2 -70h600v-143z" />
    <glyph glyph-name="indianrupee" unicode="&#x20b9;" horiz-adv-x="1253" 
d="M1135 0h-295l-312 356q-63 71 -127 102t-161 31h-158v185h405q118 0 174.5 41t63.5 139h-643v168h645v182h-645v168h1100v-168h-236v-182h236v-168h-238q-14 -142 -105.5 -219.5t-263.5 -77.5v-16q64 -14 110 -49t110 -105z" />
    <glyph glyph-name="trademark" unicode="&#x2122;" horiz-adv-x="1136" 
d="M653 961h-106v411h145l127 -291h6l121 291h150v-411h-109v172l2 94h-8l-100 -232h-119l-107 232h-6l4 -92v-174zM311 961h-116v305h-175v106h463v-106h-172v-305z" />
    <glyph glyph-name="minus" unicode="&#x2212;" horiz-adv-x="995" 
d="M924 594h-852v184h852v-184z" />
    <glyph glyph-name="approxequal" unicode="&#x2248;" horiz-adv-x="1071" 
d="M258 354h-186v129q0 137 88 187v16h-88v145q0 97 48.5 158.5t158.5 61.5q16 0 32.5 -2.5t28.5 -4.5t31 -9t26.5 -9.5t29 -13.5t26 -13.5t29.5 -16t28 -15.5l106 -47q4 -3 18 -11.5t19.5 -12t17.5 -10.5t19 -10t17.5 -7t19.5 -5.5t18 -1.5q70 0 70 82v90h184v-129
q0 -70 -20 -116t-68 -74v-10h88v-132q0 -46 -9.5 -84.5t-30.5 -72.5t-60 -53t-94 -19q-42 0 -87.5 12.5t-70.5 24t-74 35.5l-116 53q-33 22 -46 30t-36.5 17.5t-42.5 9.5q-74 0 -74 -82v-90zM768 522q74 0 74 90v86q-24 -18 -68 -18q-12 0 -23.5 1t-24 4t-20.5 4.5t-22.5 8
t-19.5 8t-22 10.5t-19.5 10t-22.5 12t-22 12l-129 61q-31 20 -48.5 29.5t-42 18.5t-45.5 9q-82 0 -82 -88v-84q36 19 84 19q27 0 59.5 -12t52.5 -24t56 -36l123 -53q6 -3 31.5 -18t35.5 -20t29.5 -14t35 -12.5t30.5 -3.5z" />
    <glyph glyph-name="notequal" unicode="&#x2260;" horiz-adv-x="995" 
d="M924 373h-523l-137 -226l-141 80l88 146h-139v184h254l157 258h-411v184h524l137 226l141 -80l-88 -146h138v-184h-252l-158 -258h410v-184z" />
    <glyph glyph-name="lessequal" unicode="&#x2264;" horiz-adv-x="985" 
d="M913 98h-852v187h658v14l-658 258v258l852 326v-209l-651 -238v-16l651 -238v-342z" />
    <glyph glyph-name="greaterequal" unicode="&#x2265;" horiz-adv-x="985" 
d="M924 98h-852v342l651 238v16l-651 238v209l852 -326v-258l-658 -258v-14h658v-187z" />
    <glyph glyph-name="t_t" horiz-adv-x="1515" 
d="M770 0h-233q-355 0 -355 344v490h-172v184h172v223h219v-223h490v223h219v-223h371v-184h-371v-478q0 -91 42.5 -124t143.5 -33h185v-199h-236q-354 0 -354 344v490h-490v-478q0 -90 43 -123.5t142 -33.5h184v-199z" />
    <glyph glyph-name="d.component" horiz-adv-x="1355" 
d="M545 -20q-234 0 -364 132.5t-130 354.5q0 223 127 356t354 133q171 0 281.5 -80.5t142.5 -211.5h13v708h221v-1372h-203v287h-14q-31 -144 -143.5 -225.5t-284.5 -81.5zM274 467q0 -154 84.5 -219.5t253.5 -65.5t263 69.5t94 205.5v16q0 134 -94 208.5t-265 74.5
q-166 0 -251 -67t-85 -222z" />
    <glyph glyph-name="h.component" horiz-adv-x="1302" 
d="M367 0h-222v1372h222v-768h12q29 143 135 237.5t289 94.5q202 0 308 -119t106 -313v-504h-220v451q0 153 -70.5 219.5t-228.5 66.5q-177 0 -254 -88.5t-77 -259.5v-389z" />
    <glyph glyph-name="caroncomb.alt" horiz-adv-x="1024" 
d="M465 928h-55v110h51q23 0 33 8t10 33v37h-96v256h213v-289q0 -155 -156 -155z" />
    <glyph glyph-name="dieresiscomb.case" horiz-adv-x="776" 
d="M684 1495h-209v254h209v-254zM301 1495h-209v254h209v-254z" />
    <glyph glyph-name="dotaccentcomb.case" horiz-adv-x="378" 
d="M299 1495h-219v254h219v-254z" />
    <glyph glyph-name="gravecomb.case" horiz-adv-x="739" 
d="M492 1495h-234l-338 260h309z" />
    <glyph glyph-name="acutecomb.case" horiz-adv-x="739" 
d="M483 1495h-233l260 260h311z" />
    <glyph glyph-name="hungarumlautcomb.case" horiz-adv-x="1054" 
d="M817 1495h-217l193 260h280zM399 1495h-217l191 260h282z" />
    <glyph glyph-name="caroncomb.alt.case" horiz-adv-x="1202" 
d="M541 813h-72v145h68q26 0 37.5 11t11.5 43v43h-123v317h280v-358q0 -100 -52 -150.5t-150 -50.5z" />
    <glyph glyph-name="circumflexcomb.case" horiz-adv-x="1026" 
d="M350 1495h-235l268 266h256l268 -266h-235l-152 154h-16z" />
    <glyph glyph-name="caroncomb.case" horiz-adv-x="1026" 
d="M676 1761h235l-268 -266h-254l-270 266h237l152 -153h16z" />
    <glyph glyph-name="brevecomb.case" horiz-adv-x="737" 
d="M369 1475q-132 0 -213.5 67.5t-81.5 177.5v23h159v-21q0 -56 31 -82t105 -26q77 0 106 25.5t29 82.5v21h160v-23q0 -110 -81.5 -177.5t-213.5 -67.5z" />
    <glyph glyph-name="ringcomb.case" horiz-adv-x="555" 
d="M279 1423q-103 0 -167.5 55t-64.5 144q0 90 64.5 145.5t167.5 55.5q102 0 165.5 -55.5t63.5 -145.5q0 -89 -63.5 -144t-165.5 -55zM279 1532q56 0 82 22t26 68q0 92 -108 92q-111 0 -111 -92q0 -46 26.5 -68t84.5 -22z" />
    <glyph glyph-name="tildecomb.case" horiz-adv-x="847" 
d="M238 1507h-150v82q0 185 164 185q61 0 160 -54l51 -28q58 -35 92 -35q57 0 57 69v39h148v-79q0 -86 -39 -136.5t-115 -50.5q-74 0 -164 53l-63 33q-54 35 -88 35q-53 0 -53 -64v-49z" />
    <glyph glyph-name="macroncomb.case" horiz-adv-x="811" 
d="M709 1552h-607v158h607v-158z" />
    <glyph glyph-name="commaaccentcomb.case" horiz-adv-x="624" 
d="M305 -410h-244l197 267h305z" />
    <glyph glyph-name="cedillacomb.case" horiz-adv-x="565" 
d="M387 -440h-182v125h184q55 0 55 43q0 45 -55 45h-170v233h125v-110h43q91 0 142 -45t51 -121q0 -79 -51 -124.5t-142 -45.5z" />
    <glyph glyph-name="ogonekcomb.case" horiz-adv-x="514" 
d="M440 -383h-164q-196 0 -196 141q0 26 6.5 49t24.5 49t27 37t36 41l59 66h146l-88 -111q-39 -51 -39 -82q0 -51 67 -51h121v-139z" />
    <glyph glyph-name="strokeshortcomb.case" horiz-adv-x="1603" 
d="M1239 588h-877v196h877v-196z" />
    <glyph glyph-name="strokelongcomb.case" horiz-adv-x="1638" 
d="M1618 1008h-1598v198h1598v-198z" />
    <glyph glyph-name="slashshortcomb.case" horiz-adv-x="1327" 
d="M1102 838l-879 -332v207l879 331v-206z" />
    <glyph glyph-name="slashlongcomb.case" horiz-adv-x="1554" 
d="M1491 1296l-1325 -1333l-111 115l1325 1333z" />
    <glyph glyph-name="ITF" horiz-adv-x="3461" 
d="M176 0v1434h442v-1434h-442zM711 1016v418h442v-418h-442zM1243 0v1434h445v-1434h-445zM1778 1016v418h442v-418h-442zM2310 0v1434h445v-1434h-445zM2845 1016v418h442v-418h-442zM2845 506v420h442v-420h-442z" />
  </font>
</defs>
</svg>
